<?xml version="1.0" encoding="UTF-8" standalone="no"?>
<!DOCTYPE svg PUBLIC "-//W3C//DTD SVG 1.1//EN" "http://www.w3.org/Graphics/SVG/1.1/DTD/svg11.dtd">
<svg xmlns="http://www.w3.org/2000/svg" xmlns:xlink="http://www.w3.org/1999/xlink" version="1.1">
<metadata/>
<defs>
<font id="museo_sans700" horiz-adv-x="808">
<font-face units-per-em="2048" ascent="1536" descent="-512"/>
<missing-glyph horiz-adv-x="497"/>
<glyph unicode="ff" horiz-adv-x="1421" d="M907 0v838h-450v-838h-260v838h-129v206h129v31q0 71 16 129t42.5 97.5t63.5 69.5t74.5 46.5t81.5 27t78.5 14t69.5 3.5q24 0 46 -1.5t32 -2.5l10 -2v-221q-23 4 -54 4q-26 0 -49 -3t-52.5 -13.5t-50 -28t-34.5 -50t-14 -75.5v-25h450v31q0 71 16.5 129t42.5 97.5 t63.5 69.5t75 46.5t81 27t78 14t69.5 3.5q24 0 46 -1.5t32 -2.5l10 -2v-221q-22 4 -53 4q-201 0 -201 -170v-25h224v-206h-224v-838h-260z"/>
<glyph unicode="fi" horiz-adv-x="1257" d="M854 0v838h-397v-838h-260v838h-129v206h129v31q0 71 16 129t42.5 97.5t63.5 69.5t74.5 46.5t81.5 27t78.5 14t69.5 3.5q24 0 46 -1.5t32 -2.5l10 -2v-221q-23 4 -54 4q-26 0 -49 -3t-52.5 -13.5t-50 -28t-34.5 -50t-14 -75.5v-25h657v-1044h-260zM854 1223v231h258v-231 h-258z"/>
<glyph unicode="fl" horiz-adv-x="1292" d="M197 0v821h-129v207h129v47q0 71 16 129t42.5 97.5t63.5 69.5t74.5 46.5t81.5 27t78.5 14t69.5 3.5q24 0 46 -1.5t32 -2.5l10 -2v-221q-23 4 -54 4q-26 0 -49 -3t-52.5 -13.5t-50 -28t-34.5 -50t-14 -75.5v-41h223v-207h-223v-821h-260zM840 326v1128h258v-1089 q0 -82 26 -113t80 -31l39 2v-227q-39 -6 -82 -6q-49 0 -89 6t-85.5 26.5t-75.5 55.5t-50.5 98.5t-20.5 149.5z"/>
<glyph unicode="ffi" horiz-adv-x="1968" d="M907 0v838h-450v-838h-260v838h-129v206h129v31q0 71 16 129t42.5 97.5t63.5 69.5t74.5 46.5t81.5 27t78.5 14t69.5 3.5q24 0 46 -1.5t32 -2.5l10 -2v-221q-23 4 -54 4q-26 0 -49 -3t-52.5 -13.5t-50 -28t-34.5 -50t-14 -75.5v-25h450v31q0 71 16.5 129t42.5 97.5 t63.5 69.5t75 46.5t81 27t78 14t69.5 3.5q24 0 46 -1.5t32 -2.5l10 -2v-221q-22 4 -53 4q-201 0 -201 -170v-25h658v-1044h-260v838h-398v-838h-260zM1565 1223v231h258v-231h-258z"/>
<glyph unicode="ffl" horiz-adv-x="2002" d="M907 0v838h-450v-838h-260v838h-129v206h129v31q0 71 16 129t42.5 97.5t63.5 69.5t74.5 46.5t81.5 27t78.5 14t69.5 3.5q24 0 46 -1.5t32 -2.5l10 -2v-221q-23 4 -54 4q-26 0 -49 -3t-52.5 -13.5t-50 -28t-34.5 -50t-14 -75.5v-25h450v31q0 71 16.5 129t42.5 97.5 t63.5 69.5t75 46.5t81 27t78 14t69.5 3.5q24 0 46 -1.5t32 -2.5l10 -2v-221q-22 4 -53 4q-201 0 -201 -170v-25h224v-206h-224v-838h-260zM1550 326v1128h258v-1089q0 -82 26 -113t81 -31l39 2v-227q-39 -6 -82 -6q-49 0 -89 6t-85.5 26.5t-76 55.5t-51 98.5t-20.5 149.5z "/>
<glyph unicode="fj" horiz-adv-x="1257" d="M197 0v838h-129v206h129v31q0 71 16 129t42.5 97.5t63.5 69.5t74.5 46.5t81.5 27t78.5 14t69.5 3.5q24 0 46 -1.5t32 -2.5l10 -2v-221q-23 4 -54 4q-26 0 -49 -3t-52.5 -13.5t-50 -28t-34.5 -50t-14 -75.5v-25h657v-1075q0 -100 -32.5 -175t-79 -115t-110 -65t-113 -31.5 t-101.5 -6.5q-22 0 -42 1.5t-29 2.5l-9 2v219q18 -4 45 -4q26 0 50.5 3.5t55 15.5t53 32t37.5 56.5t15 85.5v848h-397v-838h-260zM854 1223v231h258v-231h-258z"/>
<glyph unicode="" horiz-adv-x="682"/>
<glyph unicode=" " horiz-adv-x="497"/>
<glyph unicode="	" horiz-adv-x="497"/>
<glyph unicode=" " horiz-adv-x="497"/>
<glyph unicode="!" horiz-adv-x="671" d="M223 420l-22 1034h270l-20 -1034h-228zM211 0v242h252v-242h-252z"/>
<glyph unicode="&quot;" horiz-adv-x="749" d="M442 1053v428h193v-428h-193zM115 1053v428h192v-428h-192z"/>
<glyph unicode="#" horiz-adv-x="1445" d="M252 0l65 383h-243l30 186h244l51 287h-239l30 188h242l72 410h209l-72 -410h279l71 410h209l-72 -410h248l-33 -188h-245l-51 -287h243l-30 -186h-246l-66 -383h-209l68 383h-281l-65 -383h-209zM557 569h281l51 287h-281z"/>
<glyph unicode="$" horiz-adv-x="1167" d="M92 174l144 199q6 -6 18 -16.5t50 -37t78 -47t99.5 -37t116.5 -16.5q89 0 150 45.5t61 130.5q0 44 -29.5 81t-78.5 64t-111 56.5t-127 56.5t-127 66t-111 83t-78.5 110t-29.5 145q0 158 106.5 271t278.5 140v193h176v-188q66 -6 127.5 -23.5t102 -38.5t71.5 -41t45 -34 l14 -13l-114 -215q-6 5 -16.5 13.5t-44.5 30.5t-69.5 39t-88 30.5t-103.5 13.5q-93 0 -156 -49t-63 -125q0 -39 23.5 -71.5t63.5 -57.5t92 -48.5t109 -47.5t114 -51t109 -63.5t92 -80t63.5 -105.5t23.5 -135q0 -105 -46 -193.5t-136.5 -149t-212.5 -76.5v-189h-176v189 q-74 8 -143.5 31t-115.5 49.5t-82 52t-53 42.5z"/>
<glyph unicode="%" horiz-adv-x="1622" d="M412 831q-139 0 -236.5 94.5t-97.5 229.5q0 133 98 228.5t236 95.5t237 -96t99 -228q0 -135 -99 -229.5t-237 -94.5zM129 0l1116 1454h240l-1116 -1454h-240zM412 1020q57 0 97 39t40 96q0 55 -40.5 95t-96.5 40q-57 0 -96.5 -39.5t-39.5 -95.5q0 -57 39.5 -96t96.5 -39z M872 297q0 133 97.5 228.5t236.5 95.5q138 0 236 -95.5t98 -228.5q0 -134 -97.5 -228t-236.5 -94t-236.5 94t-97.5 228zM1071 299q0 -57 39 -96t96 -39t97 39t40 96q0 56 -40 95.5t-97 39.5t-96 -39.5t-39 -95.5z"/>
<glyph unicode="&amp;" horiz-adv-x="1406" d="M92 412q0 120 67.5 221.5t180.5 140.5v4q-7 3 -19.5 9.5t-44.5 32t-56 58t-44 91t-20 127.5q0 125 63 213t164.5 129t230.5 41q41 0 89 -6.5t75 -12.5l27 -6l-64 -209q-49 12 -96 12q-97 0 -160 -51t-63 -143q0 -34 10.5 -66t34 -61.5t69 -47.5t107.5 -18h231v189h261 v-189h188v-229h-188v-172q0 -225 -139.5 -359.5t-383.5 -134.5q-232 0 -376 124.5t-144 312.5zM362 428q0 -89 70 -150t180 -61q125 0 193.5 68t68.5 198v158h-245q-124 0 -195.5 -54.5t-71.5 -158.5z"/>
<glyph unicode="'" horiz-adv-x="425" d="M115 1053v428h196v-428h-196z"/>
<glyph unicode="(" horiz-adv-x="634" d="M377 -195q-116 190 -180 420t-64 477q0 431 244 816h219q-231 -388 -231 -818q0 -470 231 -895h-219z"/>
<glyph unicode=")" horiz-adv-x="634" d="M258 -195h-219q231 433 231 895q0 427 -231 818h219q244 -385 244 -816q0 -247 -64 -477t-180 -420z"/>
<glyph unicode="*" horiz-adv-x="944" d="M330 657l-187 136l170 204v4l-258 64l70 221l248 -100l-19 268h236l-19 -268l248 100l74 -219l-262 -66v-4l172 -202l-187 -138l-141 226h-4z"/>
<glyph unicode="+" horiz-adv-x="1296" d="M100 483v203h443v485h211v-485h442v-203h-442v-483h-211v483h-443z"/>
<glyph unicode="," horiz-adv-x="542" d="M35 -215l137 479h256l-197 -479h-196z"/>
<glyph unicode="-" horiz-adv-x="935" d="M160 471v227h616v-227h-616z"/>
<glyph unicode="." horiz-adv-x="526" d="M133 0v260h260v-260h-260z"/>
<glyph unicode="/" horiz-adv-x="839" d="M55 -86l520 1614h224l-523 -1614h-221z"/>
<glyph unicode="0" horiz-adv-x="1288" d="M643 -25q-116 0 -207 38.5t-150 106t-97.5 164t-55 206t-16.5 239.5t16.5 239t55 205t97.5 162.5t150 105t207 38.5t207 -38.5t150.5 -105t98.5 -162.5t55.5 -205t16.5 -239t-16.5 -239.5t-55.5 -206t-98.5 -164t-150.5 -106t-207 -38.5zM643 217q256 0 256 512 q0 506 -256 506t-256 -506q0 -512 256 -512z"/>
<glyph unicode="1" horiz-adv-x="1048" d="M111 0v227h315v807l2 99h-4q-16 -35 -64 -82l-116 -111l-156 164l365 350h231v-1227h315v-227h-888z"/>
<glyph unicode="2" horiz-adv-x="1187" d="M115 0q-13 102 -13 129q0 106 37.5 198.5t97.5 158.5t132.5 124t145 107t132.5 95.5t97.5 101t37.5 112.5q0 93 -63 148t-158 55q-48 0 -92.5 -17.5t-74 -43t-52 -51t-32.5 -43.5l-11 -17l-197 131q3 6 8.5 16.5t26.5 40.5t45.5 57.5t66 61.5t88 58t111.5 40.5t136 16.5 q200 0 336.5 -116t136.5 -314q0 -95 -36 -177.5t-93.5 -142t-127 -112.5t-139.5 -98.5t-128 -89t-95.5 -95.5t-38.5 -107h680v-227h-964z"/>
<glyph unicode="3" horiz-adv-x="1175" d="M72 170l135 203l16 -16t44 -35.5t70.5 -45t91 -35.5t108.5 -16q113 0 187.5 61.5t74.5 155.5q0 110 -88 168t-224 58h-100l-59 135l266 315q25 30 51 58t39 40l14 13v4q-43 -6 -129 -6h-434v227h889v-166l-356 -411q77 -11 146.5 -43.5t126.5 -84t90.5 -128.5t33.5 -168 q0 -94 -35 -179.5t-99 -152.5t-162 -106.5t-216 -39.5q-87 0 -168 20t-135.5 48.5t-96.5 57.5t-61 49z"/>
<glyph unicode="4" horiz-adv-x="1271" d="M57 375v162l627 917h313v-860h189v-219h-189v-375h-260v375h-680zM336 594h401v450q0 32 2.5 70t5.5 60l3 22h-5q-32 -78 -71 -133l-336 -465v-4z"/>
<glyph unicode="5" horiz-adv-x="1165" d="M88 172l135 199q5 -6 14 -16t40.5 -35t65 -44t85 -35t104.5 -16q112 0 193.5 68.5t81.5 179.5q0 112 -83.5 182t-209.5 70q-57 0 -113.5 -15.5t-84.5 -30.5l-27 -15l-146 53l68 737h764v-227h-537l-22 -240l-10 -67h4q67 32 155 32q234 0 373 -137t139 -340 q0 -216 -148.5 -358t-375.5 -142q-63 0 -122.5 11t-104.5 28t-85 38t-67 42.5t-47 38.5t-29 28z"/>
<glyph unicode="6" horiz-adv-x="1236" d="M670 -25q-114 0 -215.5 47t-178.5 133t-122 218.5t-45 292.5q0 116 26 230.5t80.5 220t132 186t189 128.5t241.5 48q82 0 156.5 -15.5t107.5 -31.5l33 -15l-78 -227q-92 45 -204 45q-83 0 -152 -32.5t-115 -88.5t-76 -123.5t-44 -144.5h4q38 44 116 73t156 29 q139 0 247 -67t164 -176.5t56 -241.5q0 -135 -59 -246t-169 -176.5t-251 -65.5zM670 217q99 0 158 70t59 176q0 116 -70 192t-196 76q-100 0 -169 -45t-69 -113q0 -138 86.5 -247t200.5 -109z"/>
<glyph unicode="7" horiz-adv-x="1114" d="M160 0l545 1094q20 40 42 73.5t34 46.5l12 13v4q-29 -4 -101 -4h-620v227h999v-184l-637 -1270h-274z"/>
<glyph unicode="8" horiz-adv-x="1251" d="M104 422q0 58 19 115.5t45 97t60 76.5t55.5 55t40.5 31q-150 114 -150 284q0 77 29 147t84.5 127t147 90.5t206.5 33.5q207 0 339 -109.5t132 -294.5q0 -62 -22 -127t-55 -116t-52 -75.5t-33 -39.5q187 -119 187 -309q0 -85 -35 -162.5t-98.5 -138t-162 -96.5t-216.5 -36 q-233 0 -377 128t-144 319zM868 420q0 31 -16 59t-36.5 47.5t-62 44t-71 38.5t-86.5 39.5t-86 39.5q-135 -112 -135 -246q0 -101 74 -167t176 -66q104 0 173.5 58t69.5 153zM434 1075q0 -30 10 -56t32 -49t44 -40t60 -37t66 -32.5t75 -32.5q23 -10 35 -15q98 113 98 246 q0 84 -59.5 134t-157.5 50q-96 0 -149.5 -47.5t-53.5 -120.5z"/>
<glyph unicode="9" horiz-adv-x="1236" d="M459 -25q-82 0 -156.5 15.5t-107.5 31.5l-33 15l78 227q10 -5 28.5 -13t71.5 -21t102 -13q83 0 152 32.5t116 88.5t77 123.5t44 144.5h-4q-38 -44 -116.5 -73t-157.5 -29q-139 0 -246.5 67.5t-163 177.5t-55.5 242q0 134 59 245t169 177t251 66q114 0 215.5 -47 t178.5 -133t122 -218.5t45 -292.5q0 -116 -26 -230.5t-80.5 -220t-132 -186t-189 -128.5t-241.5 -48zM616 721q99 0 168.5 46t69.5 112q0 138 -87 247t-200 109q-99 0 -159 -69.5t-60 -174.5q0 -116 70.5 -193t197.5 -77z"/>
<glyph unicode=":" horiz-adv-x="589" d="M166 784v260h258v-260h-258zM166 0v260h258v-260h-258z"/>
<glyph unicode=";" horiz-adv-x="598" d="M63 -215l119 479h256l-176 -479h-199zM184 784v260h258v-260h-258z"/>
<glyph unicode="&lt;" horiz-adv-x="1138" d="M51 502v168l985 438v-227l-710 -293v-4l710 -293v-228z"/>
<glyph unicode="=" horiz-adv-x="1335" d="M168 694v201h999v-201h-999zM168 274v201h999v-201h-999z"/>
<glyph unicode="&gt;" horiz-adv-x="1138" d="M102 63v228l711 293v4l-711 293v227l985 -438v-168z"/>
<glyph unicode="?" horiz-adv-x="997" d="M272 420v98q0 82 35 150t84.5 114t99 88.5t84.5 93.5t35 109q0 72 -57 121t-141 49q-52 0 -106.5 -21.5t-83.5 -43.5l-29 -21l-144 178q6 6 17 16t48.5 35.5t79 45t107 35.5t133.5 16q118 0 218.5 -45t164.5 -134.5t64 -205.5q0 -69 -19.5 -127.5t-51 -100.5t-70 -79 t-76.5 -69.5t-69.5 -65t-51 -72t-19.5 -84.5v-80h-252zM272 0v242h252v-242h-252z"/>
<glyph unicode="@" horiz-adv-x="1708" d="M104 492q0 157 60 298.5t162 243.5t245 161.5t303 59.5q122 0 219 -24t160.5 -65t106 -98.5t60.5 -121.5t18 -137v-512h149v-186h-567q-101 0 -185 32t-139 85t-85.5 121.5t-30.5 142.5q0 73 30 140t84.5 119.5t139 83.5t186.5 31h174q-3 80 -90 130.5t-221 50.5 q-144 0 -265.5 -78t-189.5 -205.5t-68 -271.5q0 -150 66.5 -274.5t194.5 -199.5t294 -75v-203q-179 0 -331.5 58.5t-257 159.5t-163.5 239.5t-59 294.5zM838 498q0 -85 55.5 -143t142.5 -58h158v401h-154q-89 0 -145.5 -58.5t-56.5 -141.5z"/>
<glyph unicode="A" horiz-adv-x="1304" d="M1030 0l-123 373h-510l-123 -373h-272l512 1454h277l512 -1454h-273zM655 1202h-4q-33 -143 -61 -225l-129 -389h381l-129 389q-12 36 -26.5 92.5t-22.5 94.5z"/>
<glyph unicode="B" horiz-adv-x="1314" d="M184 0v1454h521q201 0 324.5 -99.5t123.5 -275.5q0 -101 -47 -184t-129 -127v-4q114 -34 174.5 -129t60.5 -213q0 -85 -26.5 -155.5t-72.5 -119t-110 -82.5t-137 -49.5t-155 -15.5h-527zM449 860h256q83 0 131.5 53t48.5 134t-48 130.5t-137 49.5h-251v-367zM449 227h282 q99 0 155 58.5t56 152.5q0 93 -56.5 151t-154.5 58h-282v-420z"/>
<glyph unicode="C" horiz-adv-x="1466" d="M84 733q0 156 57 294t155.5 237.5t237.5 157t297 57.5q99 0 191 -20.5t152 -49.5t106 -58.5t67 -50.5l21 -20l-127 -197q-7 6 -19.5 16.5t-53.5 37t-84.5 47t-109 37t-130.5 16.5q-149 0 -261.5 -69t-169.5 -181.5t-57 -249.5q0 -139 58 -256.5t171.5 -190.5t260.5 -73 q71 0 140 19t118 46t87.5 54t57.5 46l19 19l139 -190q-8 -10 -24 -25.5t-70.5 -56.5t-116 -72t-159 -56.5t-201.5 -25.5q-164 0 -305 58.5t-238.5 159.5t-153 241t-55.5 299z"/>
<glyph unicode="D" horiz-adv-x="1513" d="M184 0v1454h496q224 0 390.5 -85t258.5 -249.5t92 -390.5q0 -341 -201 -535t-540 -194h-496zM449 227h217q225 0 354 130t129 372q0 239 -130.5 368.5t-352.5 129.5h-217v-1000z"/>
<glyph unicode="E" horiz-adv-x="1177" d="M184 0v1454h871v-227h-606v-381h489v-228h-489v-391h638v-227h-903z"/>
<glyph unicode="F" horiz-adv-x="1083" d="M184 0v1454h836v-227h-571v-412h481v-227h-481v-588h-265z"/>
<glyph unicode="G" horiz-adv-x="1556" d="M86 729q0 209 96.5 380.5t268.5 270.5t385 99q100 0 192 -19t152.5 -46.5t107 -54.5t67.5 -46l21 -19l-131 -196q-6 6 -18 15t-51 33t-81.5 42.5t-107 33.5t-129.5 15q-119 0 -215 -39.5t-157.5 -107.5t-94.5 -158.5t-33 -194.5q0 -232 139.5 -376t348.5 -144 q61 0 121 15.5t102 38t75.5 45t49.5 38.5l16 15v170h-223v227h461v-766h-225v70l2 61h-4q-6 -6 -18 -16.5t-52.5 -37.5t-86 -47.5t-117.5 -37.5t-148 -17q-143 0 -273 54.5t-227.5 150.5t-155 239t-57.5 310z"/>
<glyph unicode="H" horiz-adv-x="1562" d="M184 0v1454h265v-616h665v616h264v-1454h-264v610h-665v-610h-265z"/>
<glyph unicode="I" horiz-adv-x="632" d="M184 0v1454h265v-1454h-265z"/>
<glyph unicode="J" horiz-adv-x="1120" d="M49 430v84h262v-68q0 -120 55 -174.5t138 -54.5q81 0 133.5 53t52.5 164v793h-375v227h639v-1024q0 -114 -39 -204t-104.5 -143t-144.5 -80.5t-166 -27.5q-86 0 -165 28t-144 81.5t-103.5 143t-38.5 202.5z"/>
<glyph unicode="K" horiz-adv-x="1325" d="M184 0v1454h265v-592h188l342 592h287l-412 -692v-4l436 -758h-297l-356 635h-188v-635h-265z"/>
<glyph unicode="L" horiz-adv-x="1103" d="M184 0v1454h265v-1227h628v-227h-893z"/>
<glyph unicode="M" horiz-adv-x="1798" d="M139 0l119 1454h283l284 -719l74 -213h4q39 127 72 213l285 719h282l117 -1454h-262l-62 813q-3 43 -3.5 99t0.5 91l1 35h-4q-43 -141 -78 -225l-235 -563h-232l-233 563q-16 37 -36 94t-32 95l-12 38h-4q4 -131 -2 -227l-62 -813h-264z"/>
<glyph unicode="N" horiz-adv-x="1556" d="M184 0v1454h265l550 -840q25 -37 55 -93.5t48 -94.5l18 -37h4q-14 139 -14 225v840h262v-1454h-262l-551 838q-24 37 -54.5 93.5t-48.5 94.5l-18 37h-4q15 -139 15 -225v-838h-265z"/>
<glyph unicode="O" horiz-adv-x="1671" d="M84 737q0 154 58 291t157.5 236t239 157t297.5 58t297.5 -58t239 -157t157 -236t57.5 -291q0 -158 -57.5 -299t-157 -242.5t-239 -161t-297.5 -59.5t-297.5 59.5t-239 161t-157.5 242.5t-58 299zM356 737q0 -147 64 -266.5t174 -186.5t242 -67q201 0 340 149t139 371 q0 141 -64 256t-173.5 179.5t-241.5 64.5t-242 -64.5t-174 -179.5t-64 -256z"/>
<glyph unicode="P" horiz-adv-x="1257" d="M184 0v1454h561q205 0 334 -130.5t129 -342.5t-129 -345.5t-334 -133.5h-296v-502h-265zM449 731h247q114 0 179 67.5t65 182.5q0 113 -64 179.5t-176 66.5h-251v-496z"/>
<glyph unicode="Q" horiz-adv-x="1691" d="M84 735q0 154 57.5 292t157 237t239 157t296.5 58q211 0 384 -98.5t271 -269t98 -376.5q0 -252 -160 -461l164 -147l-151 -168l-162 160q-189 -144 -444 -144q-209 0 -381.5 101t-270.5 275.5t-98 383.5zM356 735q0 -221 138.5 -369.5t339.5 -148.5q141 0 253 76 l-161 153l151 166l158 -157q80 131 80 280q0 215 -138.5 358.5t-342.5 143.5q-202 0 -340 -143.5t-138 -358.5z"/>
<glyph unicode="R" horiz-adv-x="1347" d="M184 0v1454h469q116 0 180.5 -9.5t112.5 -31.5q112 -50 175 -152.5t63 -244.5q0 -133 -66 -242.5t-180 -155.5v-4q20 -20 49 -71l299 -543h-295l-289 543h-253v-543h-265zM449 772h237q106 0 167.5 60.5t61.5 168.5q0 112 -59 169t-207 57h-200v-455z"/>
<glyph unicode="S" horiz-adv-x="1134" d="M74 174l143 199q6 -6 18 -16.5t50.5 -37t78.5 -47t99.5 -37t116.5 -16.5q89 0 150 45.5t61 130.5q0 41 -23.5 76t-63.5 61t-91.5 50.5t-108 49t-113.5 51t-108.5 62t-91.5 78t-63.5 102.5t-23.5 132q0 181 139.5 301.5t348.5 120.5q80 0 154.5 -16t123 -39t85.5 -46 t54 -39l17 -16l-115 -215q-6 5 -16.5 13.5t-44 30.5t-69 39t-88 30.5t-103.5 13.5q-93 0 -156 -49t-63 -125q0 -41 23.5 -75t63 -59t91 -48t108 -46.5t113 -49.5t108 -61.5t91 -79t63 -105.5t23.5 -136q0 -87 -32.5 -164t-93 -135.5t-152 -92.5t-202.5 -34q-90 0 -175 20.5 t-141.5 49.5t-100 58.5t-64.5 50.5z"/>
<glyph unicode="T" horiz-adv-x="1234" d="M485 0v1227h-477v227h1219v-227h-477v-1227h-265z"/>
<glyph unicode="U" horiz-adv-x="1501" d="M164 522v932h264v-932q0 -144 87 -224.5t235 -80.5t235.5 81t87.5 226v930h264v-932q0 -244 -161.5 -395.5t-423.5 -151.5q-264 0 -426 151.5t-162 395.5z"/>
<glyph unicode="V" horiz-adv-x="1318" d="M528 0l-530 1454h285l319 -948q13 -37 26 -90.5t20.5 -88t8.5 -34.5h5q1 0 8.5 34.5t20.5 88t26 90.5l321 948h283l-530 -1454h-263z"/>
<glyph unicode="W" horiz-adv-x="1978" d="M1102 1454l258 -1005q10 -37 16 -76t7.5 -58.5t2.5 -19.5h5q6 72 24 154l240 1005h272l-375 -1454h-305l-223 860q-11 42 -20.5 89.5t-13.5 74.5l-3 27h-4q-12 -97 -37 -191l-223 -860h-305l-365 1454h273l229 -1005q8 -36 14 -74.5t9 -58.5l2 -21h4q1 0 2.5 19.5 t7.5 58.5t16 76l262 1005h230z"/>
<glyph unicode="X" horiz-adv-x="1296" d="M35 0l452 737l-434 717h301l199 -356q21 -37 44 -81.5t35 -70.5l13 -26h4q41 92 88 178l203 356h303l-438 -717l455 -737h-297l-226 391l-90 172h-4q-41 -88 -90 -172l-223 -391h-295z"/>
<glyph unicode="Y" horiz-adv-x="1239" d="M487 0v608l-483 846h299l227 -428q21 -39 43 -89t33 -78.5t12 -27.5h5q41 105 88 195l225 428h299l-483 -846v-608h-265z"/>
<glyph unicode="Z" horiz-adv-x="1257" d="M78 0v170l645 926q25 37 51.5 70t40.5 47l14 14v4q-41 -4 -108 -4h-610v227h1050v-168l-645 -928q-25 -37 -51.5 -70t-40.5 -47l-14 -14v-4q41 4 108 4h651v-227h-1091z"/>
<glyph unicode="[" horiz-adv-x="649" d="M190 -195v1713h404v-189h-182v-1335h182v-189h-404z"/>
<glyph unicode="\" horiz-adv-x="841" d="M563 -86l-522 1614h223l522 -1614h-223z"/>
<glyph unicode="]" horiz-adv-x="649" d="M55 -6h183v1335h-183v189h404v-1713h-404v189z"/>
<glyph unicode="^" horiz-adv-x="1267" d="M133 502l412 952h164l411 -952h-225l-268 678l-269 -678h-225z"/>
<glyph unicode="_" horiz-adv-x="1230" d="M41 0h1149v-201h-1149v201z"/>
<glyph unicode="`" horiz-adv-x="1009" d="M506 1550l-213 279h268l156 -279h-211z"/>
<glyph unicode="a" horiz-adv-x="1093" d="M55 301q0 68 26 124t66.5 92t98.5 62.5t112.5 40.5t119.5 22.5t107.5 10.5t88.5 2h35v15q0 184 -201 184q-67 0 -138.5 -25t-109.5 -50l-39 -25l-98 186q7 5 19 14t53.5 31t86 39t113 31t137.5 14q207 0 321 -109t114 -307v-653h-240v86l4 74h-4q2 0 -8.5 -19t-34.5 -46 t-58.5 -54.5t-92 -46.5t-123.5 -19q-148 0 -251.5 88t-103.5 238zM317 313q0 -56 41.5 -95.5t116.5 -39.5q98 0 167 87t69 188v24h-45q-349 0 -349 -164z"/>
<glyph unicode="b" horiz-adv-x="1251" d="M143 0v1454h260v-448l-4 -88h4q4 6 11.5 16.5t35.5 36.5t61 45.5t88.5 36t117.5 16.5q210 0 336.5 -151t126.5 -396q0 -246 -135 -396.5t-345 -150.5q-61 0 -115.5 16t-88.5 39t-59.5 46t-36.5 39l-11 16h-4q4 -31 4 -72v-59h-246zM395 516q0 -131 68.5 -226t191.5 -95 q113 0 188 86.5t75 236.5q0 148 -72.5 238t-188.5 90q-52 0 -98 -19.5t-83.5 -58t-59 -103.5t-21.5 -149z"/>
<glyph unicode="c" horiz-adv-x="1116" d="M68 522q0 149 68.5 273t199.5 199t299 75q76 0 145.5 -16t114 -39t78 -46t48.5 -39l15 -16l-114 -178q-4 5 -12.5 12.5t-36 27t-57.5 34.5t-75.5 27t-91.5 12q-141 0 -229 -93.5t-88 -230.5q0 -136 90 -231.5t235 -95.5q50 0 99.5 13.5t85.5 33.5t65 39.5t43 32.5l15 14 l100 -185q-6 -7 -18 -18.5t-53 -40.5t-87 -51.5t-120 -41t-152 -18.5q-127 0 -234 43t-179.5 117t-113 174t-40.5 213z"/>
<glyph unicode="d" horiz-adv-x="1251" d="M72 522q0 247 131.5 397t341.5 150q64 0 118.5 -13.5t87 -33t55 -39.5t31.5 -33l9 -14h4q-2 27 -2 59v459h260v-1454h-246v86l4 68h-4q-4 -7 -11 -19t-35 -43t-62.5 -54.5t-93 -43t-125.5 -19.5q-211 0 -337 151.5t-126 395.5zM334 522q0 -148 72 -237.5t188 -89.5 q111 0 186.5 83t75.5 246q0 84 -28 155.5t-88.5 119t-143.5 47.5q-112 0 -187 -87t-75 -237z"/>
<glyph unicode="e" horiz-adv-x="1134" d="M70 522q0 241 148.5 394t381.5 153q218 0 340.5 -140t122.5 -356l-6 -100h-721q8 -88 54 -151.5t113 -94t146 -30.5q47 0 95.5 11.5t83.5 28.5t64 34t44 29l14 11l101 -186q-7 -6 -19 -16t-53.5 -36t-87 -46t-116.5 -36t-144 -16q-168 0 -297.5 75t-196.5 199t-67 273z M344 651h457q-3 103 -60.5 160t-146.5 57q-99 0 -165 -57.5t-85 -159.5z"/>
<glyph unicode="f" horiz-adv-x="710" d="M197 0v821h-129v207h129v47q0 71 16 129t42.5 97.5t63.5 69.5t74.5 46.5t81.5 27t78.5 14t69.5 3.5q24 0 46 -1.5t32 -2.5l10 -2v-221q-23 4 -54 4q-26 0 -49 -3t-52.5 -13.5t-50 -28t-34.5 -50t-14 -75.5v-41h223v-207h-223v-821h-260z"/>
<glyph unicode="g" horiz-adv-x="1236" d="M250 -141q15 -8 41 -19t102 -30t146 -19q130 0 212.5 61.5t82.5 192.5v61l4 56h-4q-96 -142 -291 -142q-145 0 -253 73t-162 191.5t-54 264.5t52 262t158.5 187t252.5 71q64 0 119 -13.5t88.5 -33t57.5 -39.5t34 -33l10 -14h6q-2 12 -2 29v79h244v-981 q0 -104 -31.5 -188.5t-84 -140t-124 -93.5t-149.5 -54.5t-162 -16.5q-96 0 -195 24.5t-176 65.5zM598 240q50 0 91 15.5t76 49t55 95.5t20 147q0 301 -258 301q-117 0 -181.5 -78.5t-64.5 -212.5q0 -140 69.5 -228.5t192.5 -88.5z"/>
<glyph unicode="h" horiz-adv-x="1255" d="M143 0v1454h260v-504l-4 -88h4q44 85 139 146t222 61q362 0 362 -397v-672h-258v618q0 105 -36 159t-130 54q-101 0 -176.5 -60t-105.5 -157q-17 -58 -17 -135v-479h-260z"/>
<glyph unicode="i" horiz-adv-x="546" d="M143 1223v231h258v-231h-258zM143 0v1044h260v-1044h-260z"/>
<glyph unicode="j" horiz-adv-x="546" d="M143 1223v231h258v-231h-258zM143 1044h260v-1075q0 -72 -17 -131.5t-44 -99.5t-65.5 -70.5t-77 -47.5t-83.5 -27.5t-79.5 -13.5t-69.5 -3q-22 0 -42 1.5t-29 2.5l-9 2v219q19 -4 45 -4t50.5 3.5t55 15.5t53 32t37.5 56.5t15 85.5v1054z"/>
<glyph unicode="k" horiz-adv-x="1130" d="M143 0v1454h260v-778h129l252 368h289l-330 -466v-5l371 -573h-299l-276 457h-136v-457h-260z"/>
<glyph unicode="l" horiz-adv-x="581" d="M129 326v1128h258v-1089q0 -82 26 -113t81 -31l38 2v-227q-38 -6 -81 -6q-50 0 -89.5 6t-85 26.5t-76 55.5t-51 98.5t-20.5 149.5z"/>
<glyph unicode="m" horiz-adv-x="1869" d="M143 0v1044h250v-120l-4 -72h4q43 87 134.5 152t205.5 65q239 0 305 -215h4q46 90 143 152.5t214 62.5q342 0 342 -397v-672h-260v623q0 38 -3.5 67t-12.5 56.5t-25 45.5t-42 28.5t-61 10.5q-95 0 -161 -66.5t-91 -170.5q-12 -49 -12 -135v-459h-260v623q0 47 -5 80.5 t-19 64.5t-43.5 47t-73.5 16q-97 0 -163.5 -66.5t-92.5 -172.5q-13 -51 -13 -133v-459h-260z"/>
<glyph unicode="n" horiz-adv-x="1255" d="M143 0v1044h250v-120l-4 -72h4q15 29 35.5 56.5t54 57.5t72.5 52t93.5 36.5t115.5 14.5q362 0 362 -397v-672h-258v618q0 105 -36 159t-130 54q-102 0 -176 -58.5t-104 -154.5q-19 -58 -19 -139v-479h-260z"/>
<glyph unicode="o" horiz-adv-x="1280" d="M66 522q0 157 77 283t208 195t288 69q118 0 224 -41t183.5 -112t122.5 -173.5t45 -220.5q0 -157 -77 -283t-207.5 -195t-288.5 -69q-159 0 -290 69t-208 195t-77 283zM330 522q0 -143 90.5 -234t220.5 -91q129 0 219 91t90 234q0 142 -90 234t-219 92q-130 0 -220.5 -92 t-90.5 -234z"/>
<glyph unicode="p" horiz-adv-x="1251" d="M143 -410v1454h238v-75l-4 -72h4q4 7 11.5 18.5t36 41t63.5 52.5t95.5 41.5t129.5 18.5q210 0 336.5 -151t126.5 -396q0 -246 -134.5 -396.5t-343.5 -150.5q-58 0 -110 15t-85 36t-57.5 42t-35.5 36l-11 15h-4q4 -37 4 -90v-439h-260zM395 516q0 -131 69 -226t191 -95 q113 0 188 86.5t75 236.5q0 148 -72.5 238t-188.5 90q-52 0 -98 -19.5t-83.5 -58t-59 -103.5t-21.5 -149z"/>
<glyph unicode="q" horiz-adv-x="1251" d="M72 522q0 247 131.5 397t341.5 150q64 0 120.5 -15.5t91 -37.5t59.5 -44.5t36 -37.5l10 -16h4q-4 26 -4 67v59h246v-1454h-260v451l4 90h-4l-11 -16.5t-34.5 -37.5t-60 -47.5t-88.5 -37.5t-119 -17q-211 0 -337 151.5t-126 395.5zM334 522q0 -148 72 -237.5t188 -89.5 q111 0 186.5 83t75.5 246q0 84 -28 155.5t-88.5 119t-143.5 47.5q-112 0 -187 -87t-75 -237z"/>
<glyph unicode="r" horiz-adv-x="804" d="M143 0v1044h250v-180l-4 -73h4q37 116 126.5 192t205.5 76l47 -4v-256q-27 4 -61 4q-91 0 -171 -55t-114 -164q-23 -75 -23 -170v-414h-260z"/>
<glyph unicode="s" horiz-adv-x="925" d="M55 129l119 182q5 -5 13.5 -12.5t37.5 -27t60 -34.5t78.5 -27.5t95.5 -12.5q58 0 97.5 25t39.5 69q0 31 -28 57t-73 46t-99 41t-108 49.5t-99 64t-73 90.5t-28 123q0 142 112.5 224.5t286.5 82.5q66 0 126.5 -12.5t99.5 -29.5t68.5 -34.5t42.5 -30.5l14 -12l-97 -192 q-4 4 -11.5 10t-32.5 21.5t-53 27.5t-71 21.5t-88 9.5q-55 0 -94 -24t-39 -70q0 -30 28 -54.5t73 -44t99 -40.5t108 -49t99 -63.5t73 -90.5t28 -123q0 -134 -109 -224t-290 -90q-73 0 -141.5 16t-114.5 38.5t-81.5 45t-51.5 38.5z"/>
<glyph unicode="t" horiz-adv-x="772" d="M188 383v438h-135v207h142v301h254v-301h237v-207h-237v-405q0 -49 15 -86t36.5 -57.5t51.5 -33.5t54 -16.5t49 -3.5l47 4v-227q-30 -6 -79 -6q-36 0 -70.5 3t-79.5 13.5t-83 27.5t-76.5 47.5t-65 70.5t-43.5 99.5t-17 131.5z"/>
<glyph unicode="u" horiz-adv-x="1247" d="M129 373v671h260v-618q0 -104 35.5 -158.5t126.5 -54.5q135 0 214 102.5t79 249.5v479h260v-1044h-250v119l4 74h-4q-42 -89 -139 -153.5t-223 -64.5q-363 0 -363 398z"/>
<glyph unicode="v" horiz-adv-x="1062" d="M379 0l-379 1044h274l218 -647q9 -27 17.5 -66.5t13 -65t5.5 -25.5h4q1 0 6 25.5t13.5 65.5t17.5 66l217 647h275l-375 -1044h-307z"/>
<glyph unicode="w" horiz-adv-x="1681" d="M348 0l-319 1044h274l182 -686q7 -24 12 -51.5t7 -42.5l2 -16h4q10 55 25 110l192 684h231l193 -684l23 -110h4q8 55 22 110l182 686h271l-318 -1044h-288l-177 596l-26 113h-4q-9 -58 -25 -113l-176 -596h-291z"/>
<glyph unicode="x" horiz-adv-x="1073" d="M539 358h-4q-15 -32 -29 -55l-182 -303h-289l344 528l-336 516h295l162 -284l35 -66h4q18 39 34 66l162 284h295l-336 -516l344 -528h-288l-183 303z"/>
<glyph unicode="y" horiz-adv-x="1067" d="M2 -362l86 194q57 -43 117 -43q56 0 104 34t76 101l39 92l-440 1028h292l220 -602q9 -24 18.5 -59.5t15.5 -58.5l5 -23h4q16 82 34 137l205 606h285l-467 -1202q-53 -137 -152.5 -204.5t-224.5 -67.5q-56 0 -110 17t-81 34z"/>
<glyph unicode="z" horiz-adv-x="1073" d="M72 0v139l469 588q21 26 43 50t34 35l11 11v4q-31 -4 -97 -4h-440v221h889v-141l-469 -588q-21 -26 -43.5 -50t-34.5 -35l-12 -11v-4q31 6 98 6h475v-221h-923z"/>
<glyph unicode="{" horiz-adv-x="747" d="M262 145v199q0 57 -18 100.5t-43.5 63.5t-51 32.5t-43.5 14.5l-18 2v227q7 0 19 2t42 15t52.5 33.5t41.5 64.5t19 102v177q0 89 27.5 155t66 101.5t92 57t94 27t83.5 5.5l63 -2v-193q-16 2 -37 2q-20 0 -39 -3t-43.5 -13.5t-42.5 -28.5t-30.5 -51.5t-12.5 -77.5v-223 q0 -57 -17.5 -105t-42 -75.5t-49 -46.5t-42.5 -26l-17 -7v-4q7 -2 18 -6.5t40 -24t51.5 -45.5t40.5 -74.5t18 -107.5v-246q0 -45 12.5 -78.5t30.5 -51t42.5 -28.5t43.5 -13.5t39 -2.5l37 2v-193q-26 -4 -63 -4q-43 0 -83.5 5.5t-94 27t-92 57t-66 102.5t-27.5 156z"/>
<glyph unicode="|" horiz-adv-x="593" d="M186 -330v1960h222v-1960h-222z"/>
<glyph unicode="}" horiz-adv-x="747" d="M59 -6q17 -2 37 -2q21 0 39.5 2.5t43 13.5t41.5 28.5t29.5 51t12.5 78.5v246q0 59 17.5 107.5t42.5 75t50 45t42 24.5l18 6v4q-7 2 -18.5 7t-40.5 25.5t-51.5 47t-41 75t-18.5 105.5v223q0 44 -12 77.5t-29.5 51.5t-42 28.5t-43.5 13.5t-39 3l-37 -2v193q27 2 64 2 q29 0 57 -2.5t65.5 -11.5t69.5 -24t64 -41.5t55 -61.5t37 -88t14 -117v-177q0 -58 18 -102t43.5 -65t51 -33.5t43.5 -14.5l18 -2v-227q-7 0 -19 -2t-42 -14.5t-52.5 -32.5t-41.5 -63.5t-19 -100.5v-199q0 -75 -18 -134t-50 -95.5t-68.5 -61.5t-80.5 -36.5t-77 -16t-68 -4.5 l-64 4v193z"/>
<glyph unicode="~" horiz-adv-x="1249" d="M115 408q0 186 81 279t234 93q57 0 104 -19t79 -46.5t60.5 -55t62.5 -46.5t71 -19q63 0 95 51t32 127h205q0 -187 -80.5 -280t-233.5 -93q-56 0 -103 19t-79 46.5t-60.5 54.5t-62.5 46t-71 19q-64 0 -95.5 -50t-31.5 -126h-207z"/>
<glyph unicode="¡" horiz-adv-x="624" d="M186 801v241h250v-241h-250zM176 -410l23 1033h227l20 -1033h-270z"/>
<glyph unicode="¢" horiz-adv-x="1179" d="M526 -25v177q-194 32 -314 192.5t-120 382.5t120 383t314 195v172h176v-172q136 -25 238 -112.5t152 -219.5l-234 -90q-33 81 -93 131.5t-144 50.5q-118 0 -192.5 -95t-74.5 -243q0 -154 72 -246t195 -92q83 0 143.5 50t93.5 132l234 -90q-51 -125 -151.5 -218.5 t-238.5 -110.5v-177h-176z"/>
<glyph unicode="£" horiz-adv-x="1210" d="M135 637v178h88v248q0 181 132 298.5t335 117.5q62 0 122.5 -15t102.5 -37t75.5 -44t49.5 -37l17 -15l-150 -180q-11 10 -30 24.5t-74.5 39t-106.5 24.5q-91 0 -147.5 -52.5t-56.5 -131.5v-240h362v-178h-362v-410h638v-227h-1026v227h119v410h-88z"/>
<glyph unicode="¥" horiz-adv-x="1257" d="M162 707v155h200l-315 592h301l191 -387q24 -48 46 -106.5t32 -92.5l10 -34h4q35 124 88 233l190 387h301l-315 -592h201v-155h-281l-51 -101v-67h332v-156h-332v-383h-268v383h-334v156h334v67l-54 101h-280z"/>
<glyph unicode="§" horiz-adv-x="962" d="M281 283l-150 704q-14 68 -14 117q0 165 111 270t309 105q60 0 117.5 -13t96.5 -31.5t69 -37.5t44 -32l15 -13l-117 -166q-11 9 -30 22.5t-77.5 35.5t-115.5 22q-95 0 -153 -47.5t-58 -145.5q0 -34 14 -102l141 -688h-202zM78 -2l110 176q4 -4 11.5 -10t32 -21.5 t50.5 -27.5t63.5 -21.5t74.5 -9.5q92 0 151.5 52t59.5 155q0 38 -19 117l-137 661h205l145 -704q15 -62 15 -105q0 -172 -109 -279.5t-311 -107.5q-60 0 -117.5 13t-96.5 31.5t-69 36.5t-45 31z"/>
<glyph unicode="¨" horiz-adv-x="1009" d="M594 1591v238h199v-238h-199zM217 1591v238h201v-238h-201z"/>
<glyph unicode="©" horiz-adv-x="1656" d="M94 727q0 153 58 292t156 239.5t233 159.5t284 59q202 0 371.5 -100t268 -272.5t98.5 -377.5q0 -153 -58 -292.5t-156.5 -240t-235.5 -160t-288 -59.5q-149 0 -284 59.5t-233 160t-156 240t-58 292.5zM276 727q0 -162 72.5 -296.5t198.5 -212t278 -77.5q155 0 283 77.5 t201 212t73 296.5q0 120 -43 228.5t-116.5 186.5t-177.5 123.5t-220 45.5q-114 0 -216 -45.5t-175 -123.5t-115.5 -186.5t-42.5 -228.5zM453 723q0 166 108.5 282.5t274.5 116.5q50 0 95.5 -12t78 -31t60 -42t45 -45.5t30 -41.5t17.5 -31l5 -12l-155 -73q-2 5 -6.5 13 t-20 28t-33.5 35.5t-48 28.5t-62 13q-90 0 -145.5 -65.5t-55.5 -163.5q0 -101 54 -165t147 -64q33 0 63 12t48.5 29.5t32.5 35t20 29.5l6 12l155 -71q-3 -9 -10.5 -23.5t-35 -52t-62 -66t-94.5 -52t-129 -23.5q-166 0 -274.5 116.5t-108.5 282.5z"/>
<glyph unicode="ª" horiz-adv-x="845" d="M346 784q-87 0 -153 54.5t-66 146.5q0 225 379 225h18v15q0 106 -118 106q-37 0 -79 -13.5t-65 -27.5l-24 -14l-66 121q4 3 11.5 8.5t32.5 19t53 23.5t73 18.5t92 8.5q132 0 203.5 -70.5t71.5 -196.5v-411h-172v90h-5q-2 -4 -6.5 -11t-20.5 -25t-35.5 -31.5t-52.5 -24.5 t-71 -11zM393 928q55 0 92 45.5t37 101.5v15h-22q-189 0 -189 -93q0 -31 22 -50t60 -19zM129 545v139h586v-139h-586z"/>
<glyph unicode="«" horiz-adv-x="1196" d="M530 578l336 421h248l-336 -421l336 -420h-248zM408 158l-336 420l336 421h247l-336 -421l336 -420h-247z"/>
<glyph unicode="¬" horiz-adv-x="1234" d="M96 694v201h1000v-602h-209v401h-791z"/>
<glyph unicode="­" horiz-adv-x="882" d="M133 471v227h617v-227h-617z"/>
<glyph unicode="®" horiz-adv-x="1656" d="M94 727q0 153 58 292t156 239.5t233 159.5t284 59q202 0 371.5 -100t268 -272.5t98.5 -377.5q0 -153 -58 -292.5t-156.5 -240t-235.5 -160t-288 -59.5q-149 0 -284 59.5t-233 160t-156 240t-58 292.5zM276 727q0 -162 72.5 -296.5t198.5 -212t278 -77.5q155 0 283 77.5 t201 212t73 296.5q0 120 -43 228.5t-116.5 186.5t-177.5 123.5t-220 45.5q-114 0 -216 -45.5t-175 -123.5t-115.5 -186.5t-42.5 -228.5zM569 356v750h312q110 0 177.5 -65t67.5 -173q0 -79 -42 -130t-91 -64v-4q8 -8 27 -43l141 -271h-192l-127 277h-99v-277h-174zM743 756 h97q50 0 79 30t29 82q0 53 -28.5 82t-77.5 29h-99v-223z"/>
<glyph unicode="¯" horiz-adv-x="1009" d="M238 1604v178h536v-178h-536z"/>
<glyph unicode="°" d="M406 836q-140 0 -237 93t-97 228q0 133 97.5 228.5t236.5 95.5q137 0 235 -95.5t98 -228.5q0 -135 -97.5 -228t-235.5 -93zM406 1022q57 0 97 39t40 96q0 55 -40.5 95t-96.5 40q-57 0 -96.5 -39.5t-39.5 -95.5q0 -57 39.5 -96t96.5 -39z"/>
<glyph unicode="±" horiz-adv-x="1296" d="M100 483v203h443v485h211v-485h442v-203h-442v-483h-211v483h-443zM129 -174h1040v-201h-1040v201z"/>
<glyph unicode="²" d="M98 866q-8 58 -8 84q0 72 23.5 132.5t61 101t82.5 75t90 62t82.5 53.5t61 57.5t23.5 67.5q0 47 -36 77t-91 30q-41 0 -81.5 -24t-60.5 -48l-20 -23l-127 113q4 7 11.5 17.5t35.5 38.5t60 49.5t84.5 39t109.5 17.5q130 0 221 -75t91 -204q0 -69 -29 -126t-72.5 -93 t-95 -70t-96.5 -58.5t-77 -57t-36 -66.5h418v-170h-625z"/>
<glyph unicode="³" d="M379 846q-58 0 -110.5 14t-86.5 34t-59.5 40.5t-36.5 34.5l-12 14l102 137q3 -4 8.5 -10.5t25 -23t41 -29t55 -23t69.5 -10.5q61 0 104 37t43 92t-47 86t-113 31h-71l-41 92l162 184q7 9 19.5 21.5l20.5 20.5l9 7v4q-41 -6 -72 -6h-264v172h573v-125l-202 -229 q101 -20 162 -87t61 -173q0 -124 -94 -214.5t-246 -90.5z"/>
<glyph unicode="´" horiz-adv-x="1009" d="M293 1550l156 279h268l-215 -279h-209z"/>
<glyph unicode="µ" horiz-adv-x="1288" d="M158 -410v1454h258v-618q0 -104 35.5 -158.5t126.5 -54.5q135 0 213.5 102.5t78.5 249.5v479h260v-1044h-249v127l4 66h-6q-2 -5 -6 -12.5t-19 -30.5t-33 -43.5t-48.5 -45.5t-65.5 -43t-84.5 -30.5t-104.5 -12.5q-46 0 -83 11t-51 22l-13 10h-4q14 -100 14 -170v-258 h-223z"/>
<glyph unicode="¶" horiz-adv-x="1255" d="M555 -102v596q-199 0 -340 140t-141 341t141 340t340 139h625v-227h-437v-1329h-188zM870 -102v1216h191v-1216h-191z"/>
<glyph unicode="·" horiz-adv-x="567" d="M158 469v258h252v-258h-252z"/>
<glyph unicode="¸" horiz-adv-x="1009" d="M432 51l119 -26v-15l-23 -100q67 -8 108.5 -47.5t41.5 -108.5q0 -49 -18.5 -85t-51 -56t-70 -29.5t-81.5 -9.5q-31 0 -62.5 3.5t-46.5 6.5l-16 4v144q43 -17 88 -17q90 0 90 58q0 55 -98 55l-43 -4z"/>
<glyph unicode="¹" d="M137 866v170h189v424l4 58h-4q-9 -19 -31 -39l-64 -60l-114 123l231 223h172v-729h187v-170h-570z"/>
<glyph unicode="º" horiz-adv-x="935" d="M467 786q-150 0 -254 98.5t-104 248.5q0 148 104 245t254 97q151 0 255.5 -97t104.5 -245q0 -150 -104.5 -248.5t-255.5 -98.5zM467 950q73 0 123.5 51.5t50.5 131.5q0 78 -50.5 129t-123.5 51q-72 0 -122 -51t-50 -129q0 -80 50 -131.5t122 -51.5zM139 545v139h660v-139 h-660z"/>
<glyph unicode="»" horiz-adv-x="1198" d="M543 158l336 420l-336 421h248l335 -421l-335 -420h-248zM82 158l336 420l-336 421h248l336 -421l-336 -420h-248z"/>
<glyph unicode="¼" horiz-adv-x="2000" d="M754 0h-191l688 1454h189zM135 555v170h189v424l4 57h-4q-9 -18 -31 -39l-64 -59l-114 123l231 223h172v-729h187v-170h-570zM1632 0v203h-418v131l388 565h221v-528h119v-168h-119v-203h-191zM1413 371h219v225l6 113h-4q-24 -56 -53 -97l-168 -237v-4z"/>
<glyph unicode="½" horiz-adv-x="2004" d="M733 0h-190l688 1454h188zM109 555v170h188v424l4 57h-4q-8 -18 -31 -39l-63 -59l-115 123l231 223h173v-729h186v-170h-569zM1260 0q-9 52 -9 84q0 72 23.5 132t61 101t82.5 75.5t90 62t82.5 53.5t61 57.5t23.5 67.5q0 47 -36 76.5t-91 29.5q-41 0 -81.5 -23.5 t-60.5 -47.5l-20 -23l-126 113q4 7 11.5 17.5t35.5 38.5t59.5 49.5t84.5 39t110 17.5q129 0 220 -75.5t91 -203.5q0 -60 -21.5 -110.5t-56 -85.5t-76.5 -65t-85 -54.5t-79 -47.5t-60.5 -50.5t-27.5 -57.5h418v-170h-624z"/>
<glyph unicode="¾" horiz-adv-x="2019" d="M745 0h-190l688 1454h189zM1624 0v203h-418v131l387 565h222v-528h118v-168h-118v-203h-191zM1405 371h219v225l6 113h-4q-24 -56 -53 -97l-168 -237v-4zM373 535q-58 0 -110.5 14t-86.5 34.5t-59.5 40.5t-36.5 34l-12 14l102 137q3 -4 8.5 -10.5t25 -23t41 -29t55 -23 t69.5 -10.5q61 0 104 37t43 92t-47 85.5t-113 30.5h-71l-41 93l162 184q7 9 19.5 21t20.5 20l9 8v4q-41 -6 -72 -6h-264v172h573v-125l-203 -229q101 -20 162.5 -87t61.5 -173q0 -124 -94 -214.5t-246 -90.5z"/>
<glyph unicode="¿" horiz-adv-x="940" d="M424 803v241h250v-241h-250zM66 -45q0 68 19.5 126.5t51.5 100.5t70 79t76 70t70 65t51.5 72t19.5 85v72h250v-90q0 -70 -25 -130t-62 -100t-81 -81t-81 -74t-62 -77.5t-25 -92.5q0 -73 57 -123t142 -50q52 0 106 22.5t83 44.5l28 22l145 -181q-6 -6 -17 -15.5 t-48.5 -34.5t-79.5 -44.5t-107 -35t-133 -15.5q-118 0 -218.5 44.5t-165 134t-64.5 206.5z"/>
<glyph unicode="À" horiz-adv-x="1304" d="M1030 0l-123 373h-510l-123 -373h-272l512 1454h277l512 -1454h-273zM655 1202h-4q-33 -143 -61 -225l-129 -389h381l-129 389q-12 36 -26.5 92.5t-22.5 94.5zM553 1550l-213 279h268l156 -279h-211z"/>
<glyph unicode="Á" horiz-adv-x="1304" d="M1030 0l-123 373h-510l-123 -373h-272l512 1454h277l512 -1454h-273zM655 1202h-4q-33 -143 -61 -225l-129 -389h381l-129 389q-12 36 -26.5 92.5t-22.5 94.5zM541 1550l155 279h269l-215 -279h-209z"/>
<glyph unicode="Â" horiz-adv-x="1304" d="M1030 0l-123 373h-510l-123 -373h-272l512 1454h277l512 -1454h-273zM655 1202h-4q-33 -143 -61 -225l-129 -389h381l-129 389q-12 36 -26.5 92.5t-22.5 94.5zM334 1550l188 279h260l191 -279h-215l-103 166h-4l-102 -166h-215z"/>
<glyph unicode="Ã" horiz-adv-x="1304" d="M1030 0l-123 373h-510l-123 -373h-272l512 1454h277l512 -1454h-273zM655 1202h-4q-33 -143 -61 -225l-129 -389h381l-129 389q-12 36 -26.5 92.5t-22.5 94.5zM281 1552q0 281 229 281q46 0 86 -21t63 -45.5t52.5 -45.5t56.5 -21q40 0 60 36.5t20 90.5h176 q0 -281 -229 -281q-47 0 -87 21t-62.5 45.5t-52 45.5t-56.5 21q-78 0 -78 -127h-178z"/>
<glyph unicode="Ä" horiz-adv-x="1304" d="M1030 0l-123 373h-510l-123 -373h-272l512 1454h277l512 -1454h-273zM655 1202h-4q-33 -143 -61 -225l-129 -389h381l-129 389q-12 36 -26.5 92.5t-22.5 94.5zM741 1591v238h199v-238h-199zM365 1591v238h200v-238h-200z"/>
<glyph unicode="Å" horiz-adv-x="1304" d="M1030 0l-123 373h-510l-123 -373h-272l512 1454h277l512 -1454h-273zM655 1202h-4q-33 -143 -61 -225l-129 -389h381l-129 389q-12 36 -26.5 92.5t-22.5 94.5zM653 1526q-79 0 -136.5 42.5t-57.5 117.5t57.5 118t136.5 43q78 0 135.5 -43t57.5 -118t-57.5 -117.5 t-135.5 -42.5zM653 1616q31 0 50.5 19.5t19.5 50.5q0 32 -19.5 51.5t-50.5 19.5t-50 -19.5t-19 -51.5q0 -31 18.5 -50.5t50.5 -19.5z"/>
<glyph unicode="Æ" horiz-adv-x="1849" d="M-8 0l604 1454h1133v-227h-609v-381h492v-228h-492v-391h639v-227h-901v623h-346l-246 -623h-274zM750 1227l-154 -389h262v389h-108z"/>
<glyph unicode="Ç" horiz-adv-x="1470" d="M88 733q0 208 97 379t268.5 269t382.5 98q99 0 190.5 -20.5t152 -49.5t106 -58.5t66.5 -50.5l21 -20l-127 -197q-7 6 -19.5 16.5t-53.5 37t-84.5 47t-109 37t-130.5 16.5q-149 0 -261.5 -69t-169.5 -181.5t-57 -249.5q0 -139 58 -256.5t171.5 -190.5t260.5 -73 q71 0 140 19t118 46t87.5 54t57.5 46l19 19l139 -190q-8 -9 -22.5 -24t-65.5 -53.5t-108.5 -68.5t-149 -57t-188.5 -31l-15 -67q67 -8 108.5 -47.5t41.5 -108.5q0 -49 -18.5 -85t-51 -56t-70 -29.5t-81.5 -9.5q-31 0 -62.5 3.5t-46.5 6.5l-16 4v144q43 -17 88 -17 q90 0 90 58q0 55 -99 55l-43 -4l43 158q-293 31 -475 241t-182 510z"/>
<glyph unicode="È" horiz-adv-x="1177" d="M184 0v1454h871v-227h-606v-381h489v-228h-489v-391h638v-227h-903zM541 1550l-213 279h268l156 -279h-211z"/>
<glyph unicode="É" horiz-adv-x="1177" d="M184 0v1454h871v-227h-606v-381h489v-228h-489v-391h638v-227h-903zM528 1550l156 279h268l-215 -279h-209z"/>
<glyph unicode="Ê" horiz-adv-x="1177" d="M184 0v1454h871v-227h-606v-381h489v-228h-489v-391h638v-227h-903zM322 1550l188 279h260l191 -279h-216l-102 166h-4l-102 -166h-215z"/>
<glyph unicode="Ë" horiz-adv-x="1177" d="M184 0v1454h871v-227h-606v-381h489v-228h-489v-391h638v-227h-903zM729 1591v238h199v-238h-199zM352 1591v238h201v-238h-201z"/>
<glyph unicode="Ì" horiz-adv-x="632" d="M184 0v1454h265v-1454h-265zM219 1550l-213 279h268l156 -279h-211z"/>
<glyph unicode="Í" horiz-adv-x="632" d="M184 0v1454h265v-1454h-265zM205 1550l155 279h269l-215 -279h-209z"/>
<glyph unicode="Î" horiz-adv-x="632" d="M184 0v1454h265v-1454h-265zM-2 1550l188 279h260l191 -279h-215l-103 166h-4l-102 -166h-215z"/>
<glyph unicode="Ï" horiz-adv-x="632" d="M184 0v1454h265v-1454h-265zM408 1591v238h198v-238h-198zM31 1591v238h200v-238h-200z"/>
<glyph unicode="Ð" horiz-adv-x="1552" d="M104 616v215h119v623h496q224 0 390.5 -85t258.5 -249.5t92 -390.5q0 -341 -201 -535t-540 -194h-496v616h-119zM487 227h218q225 0 354 130t129 372q0 239 -130.5 368.5t-352.5 129.5h-218v-396h271v-215h-271v-389z"/>
<glyph unicode="Ñ" horiz-adv-x="1556" d="M184 0v1454h265l550 -840q25 -37 55 -93.5t48 -94.5l18 -37h4q-14 139 -14 225v840h262v-1454h-262l-551 838q-24 37 -54.5 93.5t-48.5 94.5l-18 37h-4q15 -139 15 -225v-838h-265zM408 1552q0 281 229 281q46 0 86 -21t63 -45.5t52.5 -45.5t56.5 -21q40 0 60 36.5 t20 90.5h176q0 -281 -229 -281q-47 0 -86.5 21t-62.5 45.5t-52.5 45.5t-56.5 21q-78 0 -78 -127h-178z"/>
<glyph unicode="Ò" horiz-adv-x="1671" d="M84 737q0 154 58 291t157.5 236t239 157t297.5 58t297.5 -58t239 -157t157 -236t57.5 -291q0 -158 -57.5 -299t-157 -242.5t-239 -161t-297.5 -59.5t-297.5 59.5t-239 161t-157.5 242.5t-58 299zM356 737q0 -147 64 -266.5t174 -186.5t242 -67q201 0 340 149t139 371 q0 141 -64 256t-173.5 179.5t-241.5 64.5t-242 -64.5t-174 -179.5t-64 -256zM737 1550l-213 279h269l155 -279h-211z"/>
<glyph unicode="Ó" horiz-adv-x="1671" d="M84 737q0 154 58 291t157.5 236t239 157t297.5 58t297.5 -58t239 -157t157 -236t57.5 -291q0 -158 -57.5 -299t-157 -242.5t-239 -161t-297.5 -59.5t-297.5 59.5t-239 161t-157.5 242.5t-58 299zM356 737q0 -147 64 -266.5t174 -186.5t242 -67q201 0 340 149t139 371 q0 141 -64 256t-173.5 179.5t-241.5 64.5t-242 -64.5t-174 -179.5t-64 -256zM723 1550l156 279h268l-215 -279h-209z"/>
<glyph unicode="Ô" horiz-adv-x="1671" d="M84 737q0 154 58 291t157.5 236t239 157t297.5 58t297.5 -58t239 -157t157 -236t57.5 -291q0 -158 -57.5 -299t-157 -242.5t-239 -161t-297.5 -59.5t-297.5 59.5t-239 161t-157.5 242.5t-58 299zM356 737q0 -147 64 -266.5t174 -186.5t242 -67q201 0 340 149t139 371 q0 141 -64 256t-173.5 179.5t-241.5 64.5t-242 -64.5t-174 -179.5t-64 -256zM516 1550l189 279h260l190 -279h-215l-102 166h-4l-103 -166h-215z"/>
<glyph unicode="Õ" horiz-adv-x="1671" d="M84 737q0 154 58 291t157.5 236t239 157t297.5 58t297.5 -58t239 -157t157 -236t57.5 -291q0 -158 -57.5 -299t-157 -242.5t-239 -161t-297.5 -59.5t-297.5 59.5t-239 161t-157.5 242.5t-58 299zM356 737q0 -147 64 -266.5t174 -186.5t242 -67q201 0 340 149t139 371 q0 141 -64 256t-173.5 179.5t-241.5 64.5t-242 -64.5t-174 -179.5t-64 -256zM465 1552q0 281 229 281q46 0 86 -21t63 -45.5t52.5 -45.5t56.5 -21q41 0 60.5 36t19.5 91h176q0 -281 -229 -281q-46 0 -86 21t-63 45.5t-52.5 45.5t-56.5 21q-40 0 -59 -35.5t-19 -91.5h-178z "/>
<glyph unicode="Ö" horiz-adv-x="1671" d="M84 737q0 154 58 291t157.5 236t239 157t297.5 58t297.5 -58t239 -157t157 -236t57.5 -291q0 -158 -57.5 -299t-157 -242.5t-239 -161t-297.5 -59.5t-297.5 59.5t-239 161t-157.5 242.5t-58 299zM356 737q0 -147 64 -266.5t174 -186.5t242 -67q201 0 340 149t139 371 q0 141 -64 256t-173.5 179.5t-241.5 64.5t-242 -64.5t-174 -179.5t-64 -256zM926 1591v238h198v-238h-198zM549 1591v238h201v-238h-201z"/>
<glyph unicode="×" horiz-adv-x="1273" d="M96 141l404 445l-404 442l142 143l399 -438l399 438l142 -143l-406 -442l406 -445l-142 -141l-399 438l-399 -438z"/>
<glyph unicode="Ø" horiz-adv-x="1679" d="M90 737q0 154 58 291t157.5 236t239 157t297.5 58q199 0 375 -95l88 123l116 -80l-88 -122q122 -104 191 -251t69 -317q0 -158 -57.5 -299t-157 -242.5t-239 -161t-297.5 -59.5q-218 0 -391 105l-97 -133l-116 80l100 137q-117 106 -182.5 254t-65.5 319zM1321 737 q0 215 -139 357l-584 -809q114 -68 244 -68q201 0 340 149t139 371zM362 737q0 -212 127 -360l580 803q-105 57 -227 57q-132 0 -242 -64.5t-174 -179.5t-64 -256z"/>
<glyph unicode="Ù" horiz-adv-x="1501" d="M164 522v932h264v-932q0 -144 87 -224.5t235 -80.5t235.5 81t87.5 226v930h264v-932q0 -244 -161.5 -395.5t-423.5 -151.5q-264 0 -426 151.5t-162 395.5zM651 1550l-213 279h269l155 -279h-211z"/>
<glyph unicode="Ú" horiz-adv-x="1501" d="M164 522v932h264v-932q0 -144 87 -224.5t235 -80.5t235.5 81t87.5 226v930h264v-932q0 -244 -161.5 -395.5t-423.5 -151.5q-264 0 -426 151.5t-162 395.5zM637 1550l156 279h268l-215 -279h-209z"/>
<glyph unicode="Û" horiz-adv-x="1501" d="M164 522v932h264v-932q0 -144 87 -224.5t235 -80.5t235.5 81t87.5 226v930h264v-932q0 -244 -161.5 -395.5t-423.5 -151.5q-264 0 -426 151.5t-162 395.5zM430 1550l188 279h261l190 -279h-215l-102 166h-4l-103 -166h-215z"/>
<glyph unicode="Ü" horiz-adv-x="1501" d="M164 522v932h264v-932q0 -144 87 -224.5t235 -80.5t235.5 81t87.5 226v930h264v-932q0 -244 -161.5 -395.5t-423.5 -151.5q-264 0 -426 151.5t-162 395.5zM840 1591v238h198v-238h-198zM463 1591v238h201v-238h-201z"/>
<glyph unicode="Ý" horiz-adv-x="1239" d="M487 0v608l-483 846h299l227 -428q21 -39 43 -89t33 -78.5t12 -27.5h5q41 105 88 195l225 428h299l-483 -846v-608h-265zM508 1550l156 279h268l-215 -279h-209z"/>
<glyph unicode="Þ" horiz-adv-x="1259" d="M184 0v1454h262v-235h297q205 0 334 -131t129 -343q0 -211 -129 -344t-334 -133h-297v-268h-262zM446 496h248q116 0 180 67t64 182t-63.5 180.5t-176.5 65.5h-252v-495z"/>
<glyph unicode="ß" horiz-adv-x="1236" d="M143 0v1083q0 124 69.5 216t175 136t228.5 44q178 0 301 -102t123 -255q0 -51 -19 -96.5t-46 -77.5t-54 -61t-46 -61t-19 -64t34 -66t83 -69t98 -76t83 -102.5t34 -133.5q0 -157 -107 -243t-262 -86q-84 0 -153 13.5t-96 26.5l-27 13v221q12 -6 33 -15t83.5 -23.5 t120.5 -14.5q63 0 104.5 30t41.5 93q0 32 -24.5 64t-61.5 57.5t-80 59t-80 66t-61.5 79.5t-24.5 100q0 54 29 106t63 86t63 80t29 90q0 57 -45.5 98t-124.5 41q-86 0 -145.5 -48.5t-59.5 -143.5v-1065h-260z"/>
<glyph unicode="à" horiz-adv-x="1093" d="M55 301q0 68 26 124t66.5 92t98.5 62.5t112.5 40.5t119.5 22.5t107.5 10.5t88.5 2h35v15q0 184 -201 184q-67 0 -138.5 -25t-109.5 -50l-39 -25l-98 186q7 5 19 14t53.5 31t86 39t113 31t137.5 14q207 0 321 -109t114 -307v-653h-240v86l4 74h-4q2 0 -8.5 -19t-34.5 -46 t-58.5 -54.5t-92 -46.5t-123.5 -19q-148 0 -251.5 88t-103.5 238zM317 313q0 -56 41.5 -95.5t116.5 -39.5q98 0 167 87t69 188v24h-45q-349 0 -349 -164zM444 1174l-213 278h269l155 -278h-211z"/>
<glyph unicode="á" horiz-adv-x="1093" d="M55 301q0 68 26 124t66.5 92t98.5 62.5t112.5 40.5t119.5 22.5t107.5 10.5t88.5 2h35v15q0 184 -201 184q-67 0 -138.5 -25t-109.5 -50l-39 -25l-98 186q7 5 19 14t53.5 31t86 39t113 31t137.5 14q207 0 321 -109t114 -307v-653h-240v86l4 74h-4q2 0 -8.5 -19t-34.5 -46 t-58.5 -54.5t-92 -46.5t-123.5 -19q-148 0 -251.5 88t-103.5 238zM317 313q0 -56 41.5 -95.5t116.5 -39.5q98 0 167 87t69 188v24h-45q-349 0 -349 -164zM428 1174l156 278h268l-215 -278h-209z"/>
<glyph unicode="â" horiz-adv-x="1093" d="M55 301q0 68 26 124t66.5 92t98.5 62.5t112.5 40.5t119.5 22.5t107.5 10.5t88.5 2h35v15q0 184 -201 184q-67 0 -138.5 -25t-109.5 -50l-39 -25l-98 186q7 5 19 14t53.5 31t86 39t113 31t137.5 14q207 0 321 -109t114 -307v-653h-240v86l4 74h-4q2 0 -8.5 -19t-34.5 -46 t-58.5 -54.5t-92 -46.5t-123.5 -19q-148 0 -251.5 88t-103.5 238zM317 313q0 -56 41.5 -95.5t116.5 -39.5q98 0 167 87t69 188v24h-45q-349 0 -349 -164zM221 1174l189 278h260l190 -278h-215l-102 165h-4l-103 -165h-215z"/>
<glyph unicode="ã" horiz-adv-x="1093" d="M55 301q0 68 26 124t66.5 92t98.5 62.5t112.5 40.5t119.5 22.5t107.5 10.5t88.5 2h35v15q0 184 -201 184q-67 0 -138.5 -25t-109.5 -50l-39 -25l-98 186q7 5 19 14t53.5 31t86 39t113 31t137.5 14q207 0 321 -109t114 -307v-653h-240v86l4 74h-4q2 0 -8.5 -19t-34.5 -46 t-58.5 -54.5t-92 -46.5t-123.5 -19q-148 0 -251.5 88t-103.5 238zM317 313q0 -56 41.5 -95.5t116.5 -39.5q98 0 167 87t69 188v24h-45q-349 0 -349 -164zM170 1176q0 280 229 280q47 0 87 -21t62.5 -45.5t52 -45.5t56.5 -21q41 0 60.5 36t19.5 91h176q0 -281 -229 -281 q-46 0 -86 21t-63 46t-52.5 46t-56.5 21q-40 0 -59 -36t-19 -91h-178z"/>
<glyph unicode="ä" horiz-adv-x="1093" d="M55 301q0 68 26 124t66.5 92t98.5 62.5t112.5 40.5t119.5 22.5t107.5 10.5t88.5 2h35v15q0 184 -201 184q-67 0 -138.5 -25t-109.5 -50l-39 -25l-98 186q7 5 19 14t53.5 31t86 39t113 31t137.5 14q207 0 321 -109t114 -307v-653h-240v86l4 74h-4q2 0 -8.5 -19t-34.5 -46 t-58.5 -54.5t-92 -46.5t-123.5 -19q-148 0 -251.5 88t-103.5 238zM317 313q0 -56 41.5 -95.5t116.5 -39.5q98 0 167 87t69 188v24h-45q-349 0 -349 -164zM631 1214v238h198v-238h-198zM254 1214v238h201v-238h-201z"/>
<glyph unicode="å" horiz-adv-x="1093" d="M55 301q0 68 26 124t66.5 92t98.5 62.5t112.5 40.5t119.5 22.5t107.5 10.5t88.5 2h35v15q0 184 -201 184q-67 0 -138.5 -25t-109.5 -50l-39 -25l-98 186q7 5 19 14t53.5 31t86 39t113 31t137.5 14q207 0 321 -109t114 -307v-653h-240v86l4 74h-4q2 0 -8.5 -19t-34.5 -46 t-58.5 -54.5t-92 -46.5t-123.5 -19q-148 0 -251.5 88t-103.5 238zM317 313q0 -56 41.5 -95.5t116.5 -39.5q98 0 167 87t69 188v24h-45q-349 0 -349 -164zM541 1149q-80 0 -137.5 42.5t-57.5 117.5t57.5 118t137.5 43q78 0 135 -43t57 -118t-57 -117.5t-135 -42.5zM541 1239 q31 0 50 19.5t19 50.5q0 32 -19 51.5t-50 19.5t-50.5 -19.5t-19.5 -51.5q0 -31 19 -50.5t51 -19.5z"/>
<glyph unicode="æ" horiz-adv-x="1746" d="M55 301q0 66 24.5 120.5t63 90.5t94.5 63t110 42t118.5 24t111.5 11.5t97 2.5h35v15q0 184 -203 184q-66 0 -137.5 -25t-110.5 -50l-39 -25l-96 184q6 5 18 14t52.5 31.5t84 40t110.5 31.5t136 14q131 0 212 -39.5t128 -114.5h4q125 154 349 154q144 0 249 -69 t157 -183.5t52 -259.5l-4 -80h-715q14 -139 98.5 -209.5t209.5 -70.5q47 0 95 11.5t83 28t63.5 33t42.5 28.5l15 11l102 -184q-7 -6 -19 -16t-53.5 -36t-87 -46t-116.5 -36t-144 -16q-299 0 -438 230h-4q-8 -19 -23.5 -43t-48.5 -58t-74.5 -61t-106 -46.5t-138.5 -19.5 q-151 0 -254 87.5t-103 236.5zM965 655h450q-3 100 -60.5 155.5t-142.5 55.5q-100 0 -164 -53.5t-83 -157.5zM317 313q0 -57 41.5 -96t118.5 -39q101 0 168.5 87t67.5 190v22h-74q-59 0 -110 -7t-102 -23.5t-80.5 -51t-29.5 -82.5z"/>
<glyph unicode="ç" horiz-adv-x="1118" d="M70 522q0 149 68.5 273t199.5 199t299 75q76 0 145.5 -16t114 -39t78 -46t48.5 -39l15 -16l-114 -178q-4 5 -12.5 12.5t-36 27t-57.5 34.5t-75.5 27t-91.5 12q-141 0 -229 -93.5t-88 -230.5q0 -136 90 -231.5t235 -95.5q50 0 99.5 13.5t85.5 33.5t65 39.5t43 32.5l15 14 l100 -185l-16.5 -16.5t-48.5 -38t-80.5 -49t-111 -41t-140.5 -23.5l-15 -67q67 -8 108.5 -47.5t41.5 -108.5q0 -49 -18.5 -85t-51 -56t-70 -29.5t-81.5 -9.5q-31 0 -62.5 3.5t-47.5 6.5l-15 4v144q43 -17 88 -17q90 0 90 58q0 55 -98 55l-43 -4l43 160q-214 29 -341.5 179 t-127.5 359z"/>
<glyph unicode="è" horiz-adv-x="1134" d="M70 522q0 241 148.5 394t381.5 153q218 0 340.5 -140t122.5 -356l-6 -100h-721q8 -88 54 -151.5t113 -94t146 -30.5q47 0 95.5 11.5t83.5 28.5t64 34t44 29l14 11l101 -186q-7 -6 -19 -16t-53.5 -36t-87 -46t-116.5 -36t-144 -16q-168 0 -297.5 75t-196.5 199t-67 273z M344 651h457q-3 103 -60.5 160t-146.5 57q-99 0 -165 -57.5t-85 -159.5zM498 1174l-213 278h268l156 -278h-211z"/>
<glyph unicode="é" horiz-adv-x="1134" d="M70 522q0 241 148.5 394t381.5 153q218 0 340.5 -140t122.5 -356l-6 -100h-721q8 -88 54 -151.5t113 -94t146 -30.5q47 0 95.5 11.5t83.5 28.5t64 34t44 29l14 11l101 -186q-7 -6 -19 -16t-53.5 -36t-87 -46t-116.5 -36t-144 -16q-168 0 -297.5 75t-196.5 199t-67 273z M344 651h457q-3 103 -60.5 160t-146.5 57q-99 0 -165 -57.5t-85 -159.5zM481 1174l156 278h268l-215 -278h-209z"/>
<glyph unicode="ê" horiz-adv-x="1134" d="M70 522q0 241 148.5 394t381.5 153q218 0 340.5 -140t122.5 -356l-6 -100h-721q8 -88 54 -151.5t113 -94t146 -30.5q47 0 95.5 11.5t83.5 28.5t64 34t44 29l14 11l101 -186q-7 -6 -19 -16t-53.5 -36t-87 -46t-116.5 -36t-144 -16q-168 0 -297.5 75t-196.5 199t-67 273z M344 651h457q-3 103 -60.5 160t-146.5 57q-99 0 -165 -57.5t-85 -159.5zM274 1174l189 278h260l190 -278h-215l-102 165h-4l-103 -165h-215z"/>
<glyph unicode="ë" horiz-adv-x="1134" d="M70 522q0 241 148.5 394t381.5 153q218 0 340.5 -140t122.5 -356l-6 -100h-721q8 -88 54 -151.5t113 -94t146 -30.5q47 0 95.5 11.5t83.5 28.5t64 34t44 29l14 11l101 -186q-7 -6 -19 -16t-53.5 -36t-87 -46t-116.5 -36t-144 -16q-168 0 -297.5 75t-196.5 199t-67 273z M344 651h457q-3 103 -60.5 160t-146.5 57q-99 0 -165 -57.5t-85 -159.5zM684 1214v238h199v-238h-199zM307 1214v238h201v-238h-201z"/>
<glyph unicode="ì" horiz-adv-x="546" d="M174 1174l-213 278h268l156 -278h-211zM143 0v1044h260v-1044h-260z"/>
<glyph unicode="í" horiz-adv-x="546" d="M160 1174l155 278h269l-215 -278h-209zM143 0v1044h260v-1044h-260z"/>
<glyph unicode="î" horiz-adv-x="546" d="M143 0v1044h260v-1044h-260zM-47 1174l188 278h260l191 -278h-215l-103 165h-4l-102 -165h-215z"/>
<glyph unicode="ï" horiz-adv-x="546" d="M362 1214v238h199v-238h-199zM-14 1214v238h200v-238h-200zM143 0v1044h260v-1044h-260z"/>
<glyph unicode="ð" horiz-adv-x="1198" d="M68 485q0 123 55 228t166.5 172t259.5 67q58 0 110.5 -15t75.5 -29l23 -15h4q-60 132 -193 217l-379 -164l-12 154l228 100q-104 51 -236 82l72 205q260 -59 442 -170l303 129l12 -152l-180 -80q281 -246 281 -645q0 -87 -18 -169t-59 -160t-101 -136t-151.5 -93.5 t-203.5 -35.5q-116 0 -212 43t-157.5 114.5t-95.5 163t-34 189.5zM330 479q0 -74 25.5 -137t82 -105t135.5 -42q69 0 121.5 29t83 77.5t45.5 104.5t15 116q0 100 -66 164t-176 64q-127 0 -196.5 -79.5t-69.5 -191.5z"/>
<glyph unicode="ñ" horiz-adv-x="1255" d="M143 0v1044h250v-120l-4 -72h4q15 29 35.5 56.5t54 57.5t72.5 52t93.5 36.5t115.5 14.5q362 0 362 -397v-672h-258v618q0 105 -36 159t-130 54q-102 0 -176 -58.5t-104 -154.5q-19 -58 -19 -139v-479h-260zM276 1176q0 280 230 280q46 0 86 -21t63 -45.5t52.5 -45.5 t56.5 -21q40 0 60 36.5t20 90.5h176q0 -281 -229 -281q-47 0 -87 21t-63 46t-52.5 46t-56.5 21q-40 0 -58.5 -35.5t-18.5 -91.5h-179z"/>
<glyph unicode="ò" horiz-adv-x="1280" d="M66 522q0 157 77 283t208 195t288 69q118 0 224 -41t183.5 -112t122.5 -173.5t45 -220.5q0 -157 -77 -283t-207.5 -195t-288.5 -69q-159 0 -290 69t-208 195t-77 283zM330 522q0 -143 90.5 -234t220.5 -91q129 0 219 91t90 234q0 142 -90 234t-219 92q-130 0 -220.5 -92 t-90.5 -234zM541 1174l-213 278h268l156 -278h-211z"/>
<glyph unicode="ó" horiz-adv-x="1280" d="M66 522q0 157 77 283t208 195t288 69q118 0 224 -41t183.5 -112t122.5 -173.5t45 -220.5q0 -157 -77 -283t-207.5 -195t-288.5 -69q-159 0 -290 69t-208 195t-77 283zM330 522q0 -143 90.5 -234t220.5 -91q129 0 219 91t90 234q0 142 -90 234t-219 92q-130 0 -220.5 -92 t-90.5 -234zM528 1174l156 278h268l-215 -278h-209z"/>
<glyph unicode="ô" horiz-adv-x="1280" d="M66 522q0 157 77 283t208 195t288 69q118 0 224 -41t183.5 -112t122.5 -173.5t45 -220.5q0 -157 -77 -283t-207.5 -195t-288.5 -69q-159 0 -290 69t-208 195t-77 283zM330 522q0 -143 90.5 -234t220.5 -91q129 0 219 91t90 234q0 142 -90 234t-219 92q-130 0 -220.5 -92 t-90.5 -234zM322 1174l188 278h260l191 -278h-216l-102 165h-4l-102 -165h-215z"/>
<glyph unicode="õ" horiz-adv-x="1280" d="M66 522q0 157 77 283t208 195t288 69q118 0 224 -41t183.5 -112t122.5 -173.5t45 -220.5q0 -157 -77 -283t-207.5 -195t-288.5 -69q-159 0 -290 69t-208 195t-77 283zM330 522q0 -143 90.5 -234t220.5 -91q129 0 219 91t90 234q0 142 -90 234t-219 92q-130 0 -220.5 -92 t-90.5 -234zM268 1176q0 280 230 280q46 0 86 -21t63 -45.5t52.5 -45.5t56.5 -21q40 0 60 36.5t20 90.5h176q0 -281 -230 -281q-46 0 -86 21t-63 46t-52.5 46t-56.5 21q-40 0 -59 -36t-19 -91h-178z"/>
<glyph unicode="ö" horiz-adv-x="1280" d="M66 522q0 157 77 283t208 195t288 69q118 0 224 -41t183.5 -112t122.5 -173.5t45 -220.5q0 -157 -77 -283t-207.5 -195t-288.5 -69q-159 0 -290 69t-208 195t-77 283zM330 522q0 -143 90.5 -234t220.5 -91q129 0 219 91t90 234q0 142 -90 234t-219 92q-130 0 -220.5 -92 t-90.5 -234zM729 1214v238h199v-238h-199zM352 1214v238h201v-238h-201z"/>
<glyph unicode="÷" horiz-adv-x="1280" d="M522 895v221h234v-221h-234zM106 483v203h1068v-203h-1068zM522 55v221h234v-221h-234z"/>
<glyph unicode="ø" horiz-adv-x="1280" d="M66 522q0 157 77 283t208 195t288 69q148 0 274 -63l82 114l113 -78l-80 -112q88 -73 137 -178.5t49 -229.5q0 -157 -77 -283t-207.5 -195t-288.5 -69q-132 0 -260 54l-84 -117l-113 80l80 110q-94 74 -146 182t-52 238zM330 522q0 -132 78 -221l368 514q-64 33 -135 33 q-130 0 -220.5 -92t-90.5 -234zM950 522q0 121 -67 207l-365 -508q58 -24 123 -24q129 0 219 91t90 234z"/>
<glyph unicode="ù" horiz-adv-x="1247" d="M129 373v671h260v-618q0 -104 35.5 -158.5t126.5 -54.5q135 0 214 102.5t79 249.5v479h260v-1044h-250v119l4 74h-4q-42 -89 -139 -153.5t-223 -64.5q-363 0 -363 398zM518 1174l-213 278h268l156 -278h-211z"/>
<glyph unicode="ú" horiz-adv-x="1247" d="M129 373v671h260v-618q0 -104 35.5 -158.5t126.5 -54.5q135 0 214 102.5t79 249.5v479h260v-1044h-250v119l4 74h-4q-42 -89 -139 -153.5t-223 -64.5q-363 0 -363 398zM504 1174l155 278h269l-215 -278h-209z"/>
<glyph unicode="û" horiz-adv-x="1247" d="M129 373v671h260v-618q0 -104 35.5 -158.5t126.5 -54.5q135 0 214 102.5t79 249.5v479h260v-1044h-250v119l4 74h-4q-42 -89 -139 -153.5t-223 -64.5q-363 0 -363 398zM297 1174l188 278h260l191 -278h-215l-103 165h-4l-102 -165h-215z"/>
<glyph unicode="ü" horiz-adv-x="1247" d="M129 373v671h260v-618q0 -104 35.5 -158.5t126.5 -54.5q135 0 214 102.5t79 249.5v479h260v-1044h-250v119l4 74h-4q-42 -89 -139 -153.5t-223 -64.5q-363 0 -363 398zM707 1214v238h198v-238h-198zM330 1214v238h200v-238h-200z"/>
<glyph unicode="ý" horiz-adv-x="1067" d="M2 -362l86 194q57 -43 117 -43q56 0 104 34t76 101l39 92l-440 1028h292l220 -602q9 -24 18.5 -59.5t15.5 -58.5l5 -23h4q16 82 34 137l205 606h285l-467 -1202q-53 -137 -152.5 -204.5t-224.5 -67.5q-56 0 -110 17t-81 34zM424 1174l156 278h268l-215 -278h-209z"/>
<glyph unicode="þ" horiz-adv-x="1249" d="M143 -410v1864h260v-446l-4 -86h4q111 147 308 147q210 0 339.5 -154t129.5 -393q0 -156 -59.5 -280.5t-167.5 -195.5t-246 -71q-63 0 -117 14.5t-87 35.5t-57 42t-34 35l-9 15h-4q4 -37 4 -90v-437h-260zM395 520q0 -152 72.5 -238.5t191.5 -86.5q113 0 186 92.5 t73 234.5q0 143 -71 234.5t-185 91.5q-118 0 -192.5 -79.5t-74.5 -248.5z"/>
<glyph unicode="ÿ" horiz-adv-x="1067" d="M2 -362l86 194q57 -43 117 -43q56 0 104 34t76 101l39 92l-440 1028h292l220 -602q9 -24 18.5 -59.5t15.5 -58.5l5 -23h4q16 82 34 137l205 606h285l-467 -1202q-53 -137 -152.5 -204.5t-224.5 -67.5q-56 0 -110 17t-81 34zM627 1214v238h198v-238h-198zM250 1214v238 h201v-238h-201z"/>
<glyph unicode="Ā" horiz-adv-x="1304" d="M1030 0l-123 373h-510l-123 -373h-272l512 1454h277l512 -1454h-273zM655 1202h-4q-33 -143 -61 -225l-129 -389h381l-129 389q-12 36 -26.5 92.5t-22.5 94.5zM385 1604v178h537v-178h-537z"/>
<glyph unicode="ā" horiz-adv-x="1093" d="M55 301q0 68 26 124t66.5 92t98.5 62.5t112.5 40.5t119.5 22.5t107.5 10.5t88.5 2h35v15q0 184 -201 184q-67 0 -138.5 -25t-109.5 -50l-39 -25l-98 186q7 5 19 14t53.5 31t86 39t113 31t137.5 14q207 0 321 -109t114 -307v-653h-240v86l4 74h-4q2 0 -8.5 -19t-34.5 -46 t-58.5 -54.5t-92 -46.5t-123.5 -19q-148 0 -251.5 88t-103.5 238zM317 313q0 -56 41.5 -95.5t116.5 -39.5q98 0 167 87t69 188v24h-45q-349 0 -349 -164zM274 1227v178h537v-178h-537z"/>
<glyph unicode="Ă" horiz-adv-x="1304" d="M1030 0l-123 373h-510l-123 -373h-272l512 1454h277l512 -1454h-273zM655 1202h-4q-33 -143 -61 -225l-129 -389h381l-129 389q-12 36 -26.5 92.5t-22.5 94.5zM653 1542q-128 0 -216.5 70t-88.5 192v25h184v-25q0 -59 35.5 -90t85.5 -31q48 0 83.5 31.5t35.5 91.5v23h184 v-25q0 -122 -88 -192t-215 -70z"/>
<glyph unicode="ă" horiz-adv-x="1093" d="M55 301q0 68 26 124t66.5 92t98.5 62.5t112.5 40.5t119.5 22.5t107.5 10.5t88.5 2h35v15q0 184 -201 184q-67 0 -138.5 -25t-109.5 -50l-39 -25l-98 186q7 5 19 14t53.5 31t86 39t113 31t137.5 14q207 0 321 -109t114 -307v-653h-240v86l4 74h-4q2 0 -8.5 -19t-34.5 -46 t-58.5 -54.5t-92 -46.5t-123.5 -19q-148 0 -251.5 88t-103.5 238zM317 313q0 -56 41.5 -95.5t116.5 -39.5q98 0 167 87t69 188v24h-45q-349 0 -349 -164zM541 1165q-128 0 -216.5 70t-88.5 192v25h184v-25q0 -59 35 -89.5t86 -30.5q48 0 83 31t35 92v22h185v-25 q0 -122 -88.5 -192t-214.5 -70z"/>
<glyph unicode="Ą" horiz-adv-x="1304" d="M1030 0l-123 373h-510l-123 -373h-272l512 1454h277l512 -1454q-115 -97 -115 -160q0 -29 25 -47t50 -22l25 -4l-63 -193q-5 0 -14 1.5t-35.5 7.5t-50 14t-53 23.5t-50 35t-35 49.5t-14.5 66q0 115 133 225v4h-76zM655 1202h-4q-35 -143 -61 -225l-129 -389h381l-129 389 q-12 36 -26.5 92.5t-22.5 94.5z"/>
<glyph unicode="ą" horiz-adv-x="1093" d="M55 301q0 68 26 124t66.5 92t98.5 62.5t112.5 40.5t119.5 22.5t107.5 10.5t88.5 2h35v15q0 184 -201 184q-67 0 -138.5 -25t-109.5 -50l-39 -25l-98 186q7 5 19 14t53.5 31t86 39t113 31t137.5 14q207 0 321 -109t114 -307v-653q-115 -97 -115 -160q0 -29 25 -47t50 -22 l25 -4l-61 -193q-5 0 -14 1.5t-35.5 7.5t-50 14t-53 23.5t-50 35t-35 49.5t-14.5 66q0 110 133 225v4h-45v86l4 74h-4q2 0 -8.5 -19t-34.5 -46t-58.5 -54.5t-92 -46.5t-123.5 -19q-148 0 -251.5 88t-103.5 238zM317 313q0 -56 41.5 -95.5t116.5 -39.5q98 0 167 87t69 188v24 h-45q-349 0 -349 -164z"/>
<glyph unicode="Ć" horiz-adv-x="1466" d="M84 733q0 156 57 294t155.5 237.5t237.5 157t297 57.5q99 0 191 -20.5t152 -49.5t106 -58.5t67 -50.5l21 -20l-127 -197q-7 6 -19.5 16.5t-53.5 37t-84.5 47t-109 37t-130.5 16.5q-149 0 -261.5 -69t-169.5 -181.5t-57 -249.5q0 -139 58 -256.5t171.5 -190.5t260.5 -73 q71 0 140 19t118 46t87.5 54t57.5 46l19 19l139 -190q-8 -10 -24 -25.5t-70.5 -56.5t-116 -72t-159 -56.5t-201.5 -25.5q-164 0 -305 58.5t-238.5 159.5t-153 241t-55.5 299zM702 1550l156 279h268l-215 -279h-209z"/>
<glyph unicode="ć" horiz-adv-x="1116" d="M68 522q0 149 68.5 273t199.5 199t299 75q76 0 145.5 -16t114 -39t78 -46t48.5 -39l15 -16l-114 -178q-4 5 -12.5 12.5t-36 27t-57.5 34.5t-75.5 27t-91.5 12q-141 0 -229 -93.5t-88 -230.5q0 -136 90 -231.5t235 -95.5q50 0 99.5 13.5t85.5 33.5t65 39.5t43 32.5l15 14 l100 -185q-6 -7 -18 -18.5t-53 -40.5t-87 -51.5t-120 -41t-152 -18.5q-127 0 -234 43t-179.5 117t-113 174t-40.5 213zM483 1174l156 278h268l-215 -278h-209z"/>
<glyph unicode="Ĉ" horiz-adv-x="1466" d="M84 733q0 156 57 294t155.5 237.5t237.5 157t297 57.5q99 0 191 -20.5t152 -49.5t106 -58.5t67 -50.5l21 -20l-127 -197q-7 6 -19.5 16.5t-53.5 37t-84.5 47t-109 37t-130.5 16.5q-149 0 -261.5 -69t-169.5 -181.5t-57 -249.5q0 -139 58 -256.5t171.5 -190.5t260.5 -73 q71 0 140 19t118 46t87.5 54t57.5 46l19 19l139 -190q-8 -10 -24 -25.5t-70.5 -56.5t-116 -72t-159 -56.5t-201.5 -25.5q-164 0 -305 58.5t-238.5 159.5t-153 241t-55.5 299zM496 1550l188 279h260l191 -279h-215l-103 166h-4l-102 -166h-215z"/>
<glyph unicode="ĉ" horiz-adv-x="1116" d="M68 522q0 149 68.5 273t199.5 199t299 75q76 0 145.5 -16t114 -39t78 -46t48.5 -39l15 -16l-114 -178q-4 5 -12.5 12.5t-36 27t-57.5 34.5t-75.5 27t-91.5 12q-141 0 -229 -93.5t-88 -230.5q0 -136 90 -231.5t235 -95.5q50 0 99.5 13.5t85.5 33.5t65 39.5t43 32.5l15 14 l100 -185q-6 -7 -18 -18.5t-53 -40.5t-87 -51.5t-120 -41t-152 -18.5q-127 0 -234 43t-179.5 117t-113 174t-40.5 213zM276 1174l189 278h260l190 -278h-215l-102 165h-4l-102 -165h-216z"/>
<glyph unicode="Ċ" horiz-adv-x="1466" d="M84 733q0 156 57 294t155.5 237.5t237.5 157t297 57.5q99 0 191 -20.5t152 -49.5t106 -58.5t67 -50.5l21 -20l-127 -197q-7 6 -19.5 16.5t-53.5 37t-84.5 47t-109 37t-130.5 16.5q-149 0 -261.5 -69t-169.5 -181.5t-57 -249.5q0 -139 58 -256.5t171.5 -190.5t260.5 -73 q71 0 140 19t118 46t87.5 54t57.5 46l19 19l139 -190q-8 -10 -24 -25.5t-70.5 -56.5t-116 -72t-159 -56.5t-201.5 -25.5q-164 0 -305 58.5t-238.5 159.5t-153 241t-55.5 299zM705 1602v227h221v-227h-221z"/>
<glyph unicode="ċ" horiz-adv-x="1116" d="M68 522q0 149 68.5 273t199.5 199t299 75q76 0 145.5 -16t114 -39t78 -46t48.5 -39l15 -16l-114 -178q-4 5 -12.5 12.5t-36 27t-57.5 34.5t-75.5 27t-91.5 12q-141 0 -229 -93.5t-88 -230.5q0 -136 90 -231.5t235 -95.5q50 0 99.5 13.5t85.5 33.5t65 39.5t43 32.5l15 14 l100 -185q-6 -7 -18 -18.5t-53 -40.5t-87 -51.5t-120 -41t-152 -18.5q-127 0 -234 43t-179.5 117t-113 174t-40.5 213zM487 1225v227h222v-227h-222z"/>
<glyph unicode="Č" horiz-adv-x="1466" d="M84 733q0 156 57 294t155.5 237.5t237.5 157t297 57.5q99 0 191 -20.5t152 -49.5t106 -58.5t67 -50.5l21 -20l-127 -197q-7 6 -19.5 16.5t-53.5 37t-84.5 47t-109 37t-130.5 16.5q-149 0 -261.5 -69t-169.5 -181.5t-57 -249.5q0 -139 58 -256.5t171.5 -190.5t260.5 -73 q71 0 140 19t118 46t87.5 54t57.5 46l19 19l139 -190q-8 -10 -24 -25.5t-70.5 -56.5t-116 -72t-159 -56.5t-201.5 -25.5q-164 0 -305 58.5t-238.5 159.5t-153 241t-55.5 299zM684 1550l-188 279h215l102 -166h4l103 166h215l-191 -279h-260z"/>
<glyph unicode="č" horiz-adv-x="1116" d="M68 522q0 149 68.5 273t199.5 199t299 75q76 0 145.5 -16t114 -39t78 -46t48.5 -39l15 -16l-114 -178q-4 5 -12.5 12.5t-36 27t-57.5 34.5t-75.5 27t-91.5 12q-141 0 -229 -93.5t-88 -230.5q0 -136 90 -231.5t235 -95.5q50 0 99.5 13.5t85.5 33.5t65 39.5t43 32.5l15 14 l100 -185q-6 -7 -18 -18.5t-53 -40.5t-87 -51.5t-120 -41t-152 -18.5q-127 0 -234 43t-179.5 117t-113 174t-40.5 213zM465 1174l-189 278h216l102 -166h4l102 166h215l-190 -278h-260z"/>
<glyph unicode="Ď" horiz-adv-x="1513" d="M184 0v1454h496q224 0 390.5 -85t258.5 -249.5t92 -390.5q0 -341 -201 -535t-540 -194h-496zM449 227h217q225 0 354 130t129 372q0 239 -130.5 368.5t-352.5 129.5h-217v-1000zM580 1550l-189 279h215l103 -166h4l102 166h215l-190 -279h-260z"/>
<glyph unicode="ď" horiz-adv-x="1312" d="M72 522q0 247 131.5 397t341.5 150q64 0 118.5 -13.5t87 -33t55 -39.5t31.5 -33l9 -14h4q-2 27 -2 59v459h260v-1454h-246v86l4 68h-4q-4 -7 -11 -19t-35 -43t-62.5 -54.5t-93 -43t-125.5 -19.5q-211 0 -337 151.5t-126 395.5zM334 522q0 -148 72 -237.5t188 -89.5 q111 0 186.5 83t75.5 246q0 84 -28 155.5t-88.5 119t-143.5 47.5q-112 0 -187 -87t-75 -237zM1219 1454h215q14 -57 14 -111q0 -89 -53 -198h-193q41 107 41 178q0 66 -24 131z"/>
<glyph unicode="Đ" horiz-adv-x="1552" d="M104 616v215h119v623h496q224 0 390.5 -85t258.5 -249.5t92 -390.5q0 -341 -201 -535t-540 -194h-496v616h-119zM487 227h218q225 0 354 130t129 372q0 239 -130.5 368.5t-352.5 129.5h-218v-396h271v-215h-271v-389z"/>
<glyph unicode="đ" horiz-adv-x="1251" d="M586 1145v155h262v154h260v-154h147v-155h-147v-1145h-246v86l4 68h-4q-4 -7 -11 -19t-35 -43t-62.5 -54.5t-93 -43t-125.5 -19.5q-211 0 -337 151.5t-126 395.5q0 247 131.5 397t341.5 150q64 0 118.5 -13.5t87 -33t55 -39.5t31.5 -33l9 -14h4q-2 27 -2 59v150h-262z M334 522q0 -148 72 -237.5t188 -89.5q111 0 186.5 83t75.5 246q0 84 -28 155.5t-88.5 119t-143.5 47.5q-112 0 -187 -87t-75 -237z"/>
<glyph unicode="Ē" horiz-adv-x="1177" d="M184 0v1454h871v-227h-606v-381h489v-228h-489v-391h638v-227h-903zM373 1604v178h536v-178h-536z"/>
<glyph unicode="ē" horiz-adv-x="1134" d="M70 522q0 241 148.5 394t381.5 153q218 0 340.5 -140t122.5 -356l-6 -100h-721q8 -88 54 -151.5t113 -94t146 -30.5q47 0 95.5 11.5t83.5 28.5t64 34t44 29l14 11l101 -186q-7 -6 -19 -16t-53.5 -36t-87 -46t-116.5 -36t-144 -16q-168 0 -297.5 75t-196.5 199t-67 273z M344 651h457q-3 103 -60.5 160t-146.5 57q-99 0 -165 -57.5t-85 -159.5zM328 1227v178h536v-178h-536z"/>
<glyph unicode="Ĕ" horiz-adv-x="1177" d="M184 0v1454h871v-227h-606v-381h489v-228h-489v-391h638v-227h-903zM641 1542q-128 0 -216.5 70t-88.5 192v25h184v-25q0 -59 35.5 -90t85.5 -31q48 0 83.5 31.5t35.5 91.5v23h184v-25q0 -122 -88 -192t-215 -70z"/>
<glyph unicode="ĕ" horiz-adv-x="1134" d="M70 522q0 241 148.5 394t381.5 153q218 0 340.5 -140t122.5 -356l-6 -100h-721q8 -88 54 -151.5t113 -94t146 -30.5q47 0 95.5 11.5t83.5 28.5t64 34t44 29l14 11l101 -186q-7 -6 -19 -16t-53.5 -36t-87 -46t-116.5 -36t-144 -16q-168 0 -297.5 75t-196.5 199t-67 273z M344 651h457q-3 103 -60.5 160t-146.5 57q-99 0 -165 -57.5t-85 -159.5zM596 1165q-128 0 -216.5 70t-88.5 192v25h184v-25q0 -59 35.5 -89.5t85.5 -30.5q48 0 83.5 31t35.5 92v22h184v-25q0 -122 -88 -192t-215 -70z"/>
<glyph unicode="Ė" horiz-adv-x="1177" d="M184 0v1454h871v-227h-606v-381h489v-228h-489v-391h638v-227h-903zM530 1602v227h222v-227h-222z"/>
<glyph unicode="ė" horiz-adv-x="1134" d="M70 522q0 241 148.5 394t381.5 153q218 0 340.5 -140t122.5 -356l-6 -100h-721q8 -88 54 -151.5t113 -94t146 -30.5q47 0 95.5 11.5t83.5 28.5t64 34t44 29l14 11l101 -186q-7 -6 -19 -16t-53.5 -36t-87 -46t-116.5 -36t-144 -16q-168 0 -297.5 75t-196.5 199t-67 273z M344 651h457q-3 103 -60.5 160t-146.5 57q-99 0 -165 -57.5t-85 -159.5zM485 1225v227h222v-227h-222z"/>
<glyph unicode="Ę" horiz-adv-x="1177" d="M184 0v1454h871v-227h-606v-381h489v-228h-489v-391h638v-227q-114 -99 -114 -160q0 -29 25 -47t50 -22l25 -4l-63 -193q-5 0 -14 1.5t-35 7.5t-49.5 14t-52.5 23.5t-50 35t-35 49.5t-14 66q0 116 137 225v4h-713z"/>
<glyph unicode="ę" horiz-adv-x="1136" d="M70 522q0 241 148.5 394t381.5 153q218 0 340.5 -140t122.5 -356l-6 -100h-721q11 -134 100 -205t213 -71q47 0 95.5 11.5t83.5 28.5t64 34t44 29l14 11l101 -184q-20 -20 -69.5 -57.5t-86.5 -67t-67.5 -74t-30.5 -88.5q0 -29 25 -47t50 -22l25 -4l-63 -193q-5 0 -14 1.5 t-35 7.5t-49.5 14t-52.5 23.5t-50 35t-35 49.5t-14 66q0 105 118 206v5q-34 -7 -71 -7q-168 0 -297.5 75t-196.5 199t-67 273zM344 651h457q-3 103 -60.5 160t-146.5 57q-99 0 -165 -57.5t-85 -159.5z"/>
<glyph unicode="Ě" horiz-adv-x="1177" d="M184 0v1454h871v-227h-606v-381h489v-228h-489v-391h638v-227h-903zM510 1550l-188 279h215l102 -166h4l102 166h216l-191 -279h-260z"/>
<glyph unicode="ě" horiz-adv-x="1134" d="M70 522q0 241 148.5 394t381.5 153q218 0 340.5 -140t122.5 -356l-6 -100h-721q8 -88 54 -151.5t113 -94t146 -30.5q47 0 95.5 11.5t83.5 28.5t64 34t44 29l14 11l101 -186q-7 -6 -19 -16t-53.5 -36t-87 -46t-116.5 -36t-144 -16q-168 0 -297.5 75t-196.5 199t-67 273z M344 651h457q-3 103 -60.5 160t-146.5 57q-99 0 -165 -57.5t-85 -159.5zM463 1174l-189 278h215l103 -166h4l102 166h215l-190 -278h-260z"/>
<glyph unicode="Ĝ" horiz-adv-x="1556" d="M86 729q0 209 96.5 380.5t268.5 270.5t385 99q100 0 192 -19t152.5 -46.5t107 -54.5t67.5 -46l21 -19l-131 -196q-6 6 -18 15t-51 33t-81.5 42.5t-107 33.5t-129.5 15q-119 0 -215 -39.5t-157.5 -107.5t-94.5 -158.5t-33 -194.5q0 -232 139.5 -376t348.5 -144 q61 0 121 15.5t102 38t75.5 45t49.5 38.5l16 15v170h-223v227h461v-766h-225v70l2 61h-4q-6 -6 -18 -16.5t-52.5 -37.5t-86 -47.5t-117.5 -37.5t-148 -17q-143 0 -273 54.5t-227.5 150.5t-155 239t-57.5 310zM496 1550l188 279h260l191 -279h-215l-103 166h-4l-102 -166 h-215z"/>
<glyph unicode="ĝ" horiz-adv-x="1236" d="M250 -141q15 -8 41 -19t102 -30t146 -19q130 0 212.5 61.5t82.5 192.5v61l4 56h-4q-96 -142 -291 -142q-145 0 -253 73t-162 191.5t-54 264.5t52 262t158.5 187t252.5 71q64 0 119 -13.5t88.5 -33t57.5 -39.5t34 -33l10 -14h6q-2 12 -2 29v79h244v-981 q0 -104 -31.5 -188.5t-84 -140t-124 -93.5t-149.5 -54.5t-162 -16.5q-96 0 -195 24.5t-176 65.5zM598 240q50 0 91 15.5t76 49t55 95.5t20 147q0 301 -258 301q-117 0 -181.5 -78.5t-64.5 -212.5q0 -140 69.5 -228.5t192.5 -88.5zM281 1174l188 278h260l191 -278h-215 l-103 165h-4l-102 -165h-215z"/>
<glyph unicode="Ğ" horiz-adv-x="1556" d="M86 729q0 209 96.5 380.5t268.5 270.5t385 99q100 0 192 -19t152.5 -46.5t107 -54.5t67.5 -46l21 -19l-131 -196q-6 6 -18 15t-51 33t-81.5 42.5t-107 33.5t-129.5 15q-119 0 -215 -39.5t-157.5 -107.5t-94.5 -158.5t-33 -194.5q0 -232 139.5 -376t348.5 -144 q61 0 121 15.5t102 38t75.5 45t49.5 38.5l16 15v170h-223v227h461v-766h-225v70l2 61h-4q-6 -6 -18 -16.5t-52.5 -37.5t-86 -47.5t-117.5 -37.5t-148 -17q-143 0 -273 54.5t-227.5 150.5t-155 239t-57.5 310zM815 1542q-128 0 -216.5 70t-88.5 192v25h184v-25 q0 -59 35.5 -90t85.5 -31q48 0 83.5 31.5t35.5 91.5v23h184v-25q0 -122 -88 -192t-215 -70z"/>
<glyph unicode="ğ" horiz-adv-x="1236" d="M250 -141q15 -8 41 -19t102 -30t146 -19q130 0 212.5 61.5t82.5 192.5v61l4 56h-4q-96 -142 -291 -142q-145 0 -253 73t-162 191.5t-54 264.5t52 262t158.5 187t252.5 71q64 0 119 -13.5t88.5 -33t57.5 -39.5t34 -33l10 -14h6q-2 12 -2 29v79h244v-981 q0 -104 -31.5 -188.5t-84 -140t-124 -93.5t-149.5 -54.5t-162 -16.5q-96 0 -195 24.5t-176 65.5zM598 240q50 0 91 15.5t76 49t55 95.5t20 147q0 301 -258 301q-117 0 -181.5 -78.5t-64.5 -212.5q0 -140 69.5 -228.5t192.5 -88.5zM600 1165q-128 0 -216.5 70t-88.5 192v25 h184v-25q0 -59 35.5 -89.5t85.5 -30.5q48 0 83.5 31t35.5 92v22h184v-25q0 -122 -88 -192t-215 -70z"/>
<glyph unicode="Ġ" horiz-adv-x="1556" d="M86 729q0 209 96.5 380.5t268.5 270.5t385 99q100 0 192 -19t152.5 -46.5t107 -54.5t67.5 -46l21 -19l-131 -196q-6 6 -18 15t-51 33t-81.5 42.5t-107 33.5t-129.5 15q-119 0 -215 -39.5t-157.5 -107.5t-94.5 -158.5t-33 -194.5q0 -232 139.5 -376t348.5 -144 q61 0 121 15.5t102 38t75.5 45t49.5 38.5l16 15v170h-223v227h461v-766h-225v70l2 61h-4q-6 -6 -18 -16.5t-52.5 -37.5t-86 -47.5t-117.5 -37.5t-148 -17q-143 0 -273 54.5t-227.5 150.5t-155 239t-57.5 310zM705 1602v227h221v-227h-221z"/>
<glyph unicode="ġ" horiz-adv-x="1236" d="M250 -141q15 -8 41 -19t102 -30t146 -19q130 0 212.5 61.5t82.5 192.5v61l4 56h-4q-96 -142 -291 -142q-145 0 -253 73t-162 191.5t-54 264.5t52 262t158.5 187t252.5 71q64 0 119 -13.5t88.5 -33t57.5 -39.5t34 -33l10 -14h6q-2 12 -2 29v79h244v-981 q0 -104 -31.5 -188.5t-84 -140t-124 -93.5t-149.5 -54.5t-162 -16.5q-96 0 -195 24.5t-176 65.5zM598 240q50 0 91 15.5t76 49t55 95.5t20 147q0 301 -258 301q-117 0 -181.5 -78.5t-64.5 -212.5q0 -140 69.5 -228.5t192.5 -88.5zM489 1225v227h222v-227h-222z"/>
<glyph unicode="Ģ" horiz-adv-x="1556" d="M86 729q0 209 96.5 380.5t268.5 270.5t385 99q100 0 192 -19t152.5 -46.5t107 -54.5t67.5 -46l21 -19l-131 -196q-6 6 -18 15t-51 33t-81.5 42.5t-107 33.5t-129.5 15q-119 0 -215 -39.5t-157.5 -107.5t-94.5 -158.5t-33 -194.5q0 -232 139.5 -376t348.5 -144 q61 0 121 15.5t102 38t75.5 45t49.5 38.5l16 15v170h-223v227h461v-766h-225v70l2 61h-4q-6 -6 -18 -16.5t-52.5 -37.5t-86 -47.5t-117.5 -37.5t-148 -17q-143 0 -273 54.5t-227.5 150.5t-155 239t-57.5 310zM688 -113h215q15 -61 15 -110q0 -88 -54 -199h-192 q41 113 41 178q0 67 -25 131z"/>
<glyph unicode="ģ" horiz-adv-x="1236" d="M250 -141q15 -8 41 -19t102 -30t146 -19q130 0 212.5 61.5t82.5 192.5v61l4 56h-4q-96 -142 -291 -142q-145 0 -253 73t-162 191.5t-54 264.5t52 262t158.5 187t252.5 71q64 0 119 -13.5t88.5 -33t57.5 -39.5t34 -33l10 -14h6q-2 12 -2 29v79h244v-981 q0 -104 -31.5 -188.5t-84 -140t-124 -93.5t-149.5 -54.5t-162 -16.5q-96 0 -195 24.5t-176 65.5zM598 240q50 0 91 15.5t76 49t55 95.5t20 147q0 301 -258 301q-117 0 -181.5 -78.5t-64.5 -212.5q0 -140 69.5 -228.5t192.5 -88.5zM713 1151h-215q-15 53 -15 106q0 87 54 195 h190q-39 -112 -39 -174q0 -65 25 -127z"/>
<glyph unicode="Ĥ" horiz-adv-x="1562" d="M184 0v1454h265v-616h665v616h264v-1454h-264v610h-665v-610h-265zM461 1550l188 279h260l191 -279h-215l-103 166h-4l-102 -166h-215z"/>
<glyph unicode="ĥ" horiz-adv-x="1255" d="M143 0v1454h260v-504l-4 -88h4q44 85 139 146t222 61q362 0 362 -397v-672h-258v618q0 105 -36 159t-130 54q-101 0 -176.5 -60t-105.5 -157q-17 -58 -17 -135v-479h-260zM-45 1550l188 279h260l191 -279h-215l-103 166h-4l-102 -166h-215z"/>
<glyph unicode="Ħ" horiz-adv-x="1648" d="M227 0v1055h-125v170h125v229h265v-229h663v229h266v-229h127v-170h-127v-1055h-266v610h-663v-610h-265zM492 838h663v217h-663v-217z"/>
<glyph unicode="ħ" horiz-adv-x="1255" d="M8 1145v155h135v154h260v-154h273v-155h-273v-195l-4 -88h4q44 85 139 146t222 61q362 0 362 -397v-672h-258v618q0 105 -36 159t-130 54q-101 0 -176.5 -60t-105.5 -157q-17 -58 -17 -135v-479h-260v1145h-135z"/>
<glyph unicode="Ĩ" horiz-adv-x="632" d="M184 0v1454h265v-1454h-265zM-53 1552q0 281 229 281q46 0 86 -21t63 -45.5t52.5 -45.5t56.5 -21q41 0 60.5 36t19.5 91h176q0 -281 -229 -281q-46 0 -86 21t-63 45.5t-52.5 45.5t-56.5 21q-78 0 -78 -127h-178z"/>
<glyph unicode="ĩ" horiz-adv-x="546" d="M-98 1176q0 280 229 280q46 0 86 -21t63 -45.5t52.5 -45.5t56.5 -21q40 0 60 36.5t20 90.5h176q0 -281 -229 -281q-46 0 -86 21t-63 46t-52.5 46t-56.5 21q-41 0 -59.5 -35.5t-18.5 -91.5h-178zM143 0v1044h260v-1044h-260z"/>
<glyph unicode="Ī" horiz-adv-x="632" d="M184 0v1454h265v-1454h-265zM51 1604v178h537v-178h-537z"/>
<glyph unicode="ī" horiz-adv-x="546" d="M6 1227v178h537v-178h-537zM143 0v1044h260v-1044h-260z"/>
<glyph unicode="Ĭ" horiz-adv-x="632" d="M184 0v1454h265v-1454h-265zM319 1542q-128 0 -216.5 70t-88.5 192v25h185v-25q0 -59 35 -90t85 -31q48 0 83.5 31.5t35.5 91.5v23h185v-25q0 -122 -88.5 -192t-215.5 -70z"/>
<glyph unicode="ĭ" horiz-adv-x="546" d="M274 1165q-128 0 -216.5 70t-88.5 192v25h185v-25q0 -59 35 -89.5t85 -30.5q49 0 84 31t35 92v22h185v-25q0 -122 -88.5 -192t-215.5 -70zM143 0v1044h260v-1044h-260z"/>
<glyph unicode="Į" horiz-adv-x="632" d="M184 0v1454h265v-1454q-109 -97 -109 -160q0 -29 25 -47t50 -22l25 -4l-61 -193q-5 0 -14 1.5t-35.5 7.5t-50 14t-53 23.5t-50 35t-35 49.5t-14.5 66q0 69 39 127.5t88 97.5v4h-70z"/>
<glyph unicode="į" horiz-adv-x="546" d="M143 0v1044h260v-1044q-108 -94 -108 -160q0 -29 25 -47t50 -22l25 -4l-63 -193q-5 0 -14 1.5t-35 7.5t-49.5 14t-52.5 23.5t-50 35t-35 49.5t-14 66q0 69 39 127.5t88 97.5v4h-66zM143 1223v231h258v-231h-258z"/>
<glyph unicode="İ" horiz-adv-x="632" d="M184 0v1454h265v-1454h-265zM209 1602v227h221v-227h-221z"/>
<glyph unicode="ı" horiz-adv-x="546" d="M143 0v1044h260v-1044h-260z"/>
<glyph unicode="Ĳ" horiz-adv-x="1316" d="M616 -8v239q36 0 69.5 6.5t70.5 26t64 49.5t45 82.5t18 120.5v938h268v-942q0 -126 -33 -221t-84.5 -150.5t-125 -90.5t-143 -46.5t-149.5 -11.5zM184 0v1454h265v-1454h-265z"/>
<glyph unicode="ĳ" horiz-adv-x="1101" d="M143 1223v231h258v-231h-258zM143 0v1044h260v-1044h-260zM698 1223v231h258v-231h-258zM698 1044h260v-1075q0 -72 -17 -131.5t-44 -99.5t-65.5 -70.5t-77 -47.5t-83.5 -27.5t-79.5 -13.5t-69.5 -3q-22 0 -42 1.5t-29 2.5l-9 2v219q19 -4 45 -4t50.5 3.5t55 15.5t53 32 t37.5 56.5t15 85.5v1054z"/>
<glyph unicode="Ĵ" horiz-adv-x="1120" d="M49 430v84h262v-68q0 -120 55 -174.5t138 -54.5q81 0 133.5 53t52.5 164v793h-375v227h639v-1024q0 -114 -39 -204t-104.5 -143t-144.5 -80.5t-166 -27.5q-86 0 -165 28t-144 81.5t-103.5 143t-38.5 202.5zM309 1550l189 279h260l190 -279h-215l-102 166h-4l-103 -166 h-215z"/>
<glyph unicode="ĵ" horiz-adv-x="546" d="M143 1044h260v-1075q0 -72 -17 -131.5t-44 -99.5t-65.5 -70.5t-77 -47.5t-83.5 -27.5t-79.5 -13.5t-69.5 -3q-22 0 -42 1.5t-29 2.5l-9 2v219q19 -4 45 -4t50.5 3.5t55 15.5t53 32t37.5 56.5t15 85.5v1054zM-39 1174l191 280h237l191 -280h-205l-103 167h-4l-102 -167 h-205z"/>
<glyph unicode="Ķ" horiz-adv-x="1325" d="M184 0v1454h265v-592h188l342 592h287l-412 -692v-4l436 -758h-297l-356 635h-188v-635h-265zM567 -113h215q15 -56 15 -110q0 -88 -54 -199h-192q41 113 41 178q0 67 -25 131z"/>
<glyph unicode="ķ" horiz-adv-x="1130" d="M143 0v1454h260v-778h129l252 368h289l-330 -466v-5l371 -573h-299l-276 457h-136v-457h-260zM475 -113h215q15 -61 15 -110q0 -88 -54 -199h-192q41 113 41 178q0 67 -25 131z"/>
<glyph unicode="ĸ" horiz-adv-x="1132" d="M143 0v1044h260v-393h127l265 393h290l-342 -489v-4l357 -551h-305l-258 432h-134v-432h-260z"/>
<glyph unicode="Ĺ" horiz-adv-x="1103" d="M184 0v1454h265v-1227h628v-227h-893zM205 1550l155 279h269l-215 -279h-209z"/>
<glyph unicode="ĺ" horiz-adv-x="581" d="M129 326v1128h258v-1089q0 -82 26 -113t81 -31l38 2v-227q-38 -6 -81 -6q-50 0 -89.5 6t-85 26.5t-76 55.5t-51 98.5t-20.5 149.5zM147 1550l156 279h268l-215 -279h-209z"/>
<glyph unicode="Ļ" horiz-adv-x="1103" d="M184 0v1454h265v-1227h628v-227h-893zM530 -113h215q15 -56 15 -110q0 -87 -53 -199h-193q41 108 41 178q0 67 -25 131z"/>
<glyph unicode="ļ" horiz-adv-x="581" d="M129 326v1128h258v-1089q0 -82 26 -113t81 -31l38 2v-227q-38 -6 -81 -6q-50 0 -89.5 6t-85 26.5t-76 55.5t-51 98.5t-20.5 149.5zM225 -113h215q15 -56 15 -110q0 -88 -54 -199h-192q41 113 41 178q0 67 -25 131z"/>
<glyph unicode="Ľ" horiz-adv-x="1103" d="M184 0v1454h265v-1227h628v-227h-893zM610 1454h215q15 -56 15 -111q0 -87 -54 -198h-192q41 111 41 178t-25 131z"/>
<glyph unicode="ľ" horiz-adv-x="643" d="M129 326v1128h258v-1089q0 -82 26 -113t81 -31l38 2v-227q-38 -6 -81 -6q-50 0 -89.5 6t-85 26.5t-76 55.5t-51 98.5t-20.5 149.5zM500 1454h215q14 -57 14 -111q0 -89 -53 -198h-193q41 107 41 178q0 66 -24 131z"/>
<glyph unicode="Ŀ" horiz-adv-x="1103" d="M184 0v1454h265v-1227h628v-227h-893zM668 662v258h252v-258h-252z"/>
<glyph unicode="ŀ" horiz-adv-x="802" d="M129 326v1128h258v-1089q0 -82 26 -113t81 -31l38 2v-227q-38 -6 -81 -6q-50 0 -89.5 6t-85 26.5t-76 55.5t-51 98.5t-20.5 149.5zM545 662v258h252v-258h-252z"/>
<glyph unicode="Ł" horiz-adv-x="1150" d="M117 473v254l114 66v661h265v-510l217 125v-254l-217 -125v-463h628v-227h-893v539z"/>
<glyph unicode="ł" horiz-adv-x="692" d="M72 500v254l131 75v625h258v-477l157 92v-254l-157 -92v-358q0 -82 26 -113t80 -31l39 2v-227q-39 -6 -82 -6q-49 0 -89 6t-85.5 26.5t-75.5 55.5t-50.5 98.5t-20.5 149.5v249z"/>
<glyph unicode="Ń" horiz-adv-x="1556" d="M184 0v1454h265l550 -840q25 -37 55 -93.5t48 -94.5l18 -37h4q-14 139 -14 225v840h262v-1454h-262l-551 838q-24 37 -54.5 93.5t-48.5 94.5l-18 37h-4q15 -139 15 -225v-838h-265zM668 1550l155 279h269l-215 -279h-209z"/>
<glyph unicode="ń" horiz-adv-x="1255" d="M143 0v1044h250v-120l-4 -72h4q15 29 35.5 56.5t54 57.5t72.5 52t93.5 36.5t115.5 14.5q362 0 362 -397v-672h-258v618q0 105 -36 159t-130 54q-102 0 -176 -58.5t-104 -154.5q-19 -58 -19 -139v-479h-260zM537 1174l155 278h269l-216 -278h-208z"/>
<glyph unicode="Ņ" horiz-adv-x="1556" d="M184 0v1454h265l550 -840q25 -37 55 -93.5t48 -94.5l18 -37h4q-14 139 -14 225v840h262v-1454h-262l-551 838q-24 37 -54.5 93.5t-48.5 94.5l-18 37h-4q15 -139 15 -225v-838h-265zM668 -113h215q14 -57 14 -110q0 -90 -53 -199h-193q41 108 41 178q0 66 -24 131z"/>
<glyph unicode="ņ" horiz-adv-x="1255" d="M143 0v1044h250v-120l-4 -72h4q15 29 35.5 56.5t54 57.5t72.5 52t93.5 36.5t115.5 14.5q362 0 362 -397v-672h-258v618q0 105 -36 159t-130 54q-102 0 -176 -58.5t-104 -154.5q-19 -58 -19 -139v-479h-260zM518 -113h215q15 -61 15 -110q0 -88 -54 -199h-192 q41 113 41 178q0 67 -25 131z"/>
<glyph unicode="Ň" horiz-adv-x="1556" d="M184 0v1454h265l550 -840q25 -37 55 -93.5t48 -94.5l18 -37h4q-14 139 -14 225v840h262v-1454h-262l-551 838q-24 37 -54.5 93.5t-48.5 94.5l-18 37h-4q15 -139 15 -225v-838h-265zM649 1550l-188 279h215l102 -166h4l103 166h215l-191 -279h-260z"/>
<glyph unicode="ň" horiz-adv-x="1255" d="M143 0v1044h250v-120l-4 -72h4q15 29 35.5 56.5t54 57.5t72.5 52t93.5 36.5t115.5 14.5q362 0 362 -397v-672h-258v618q0 105 -36 159t-130 54q-102 0 -176 -58.5t-104 -154.5q-19 -58 -19 -139v-479h-260zM518 1174l-188 278h215l102 -166h4l103 166h215l-191 -278h-260 z"/>
<glyph unicode="ŉ" horiz-adv-x="1255" d="M143 0v1044h250v-120l-4 -72h4q15 29 35.5 56.5t54 57.5t72.5 52t93.5 36.5t115.5 14.5q362 0 362 -397v-672h-258v618q0 105 -36 159t-130 54q-102 0 -176 -58.5t-104 -154.5q-19 -58 -19 -139v-479h-260zM-23 1454h216q14 -57 14 -111q0 -86 -53 -198h-193 q41 107 41 178q0 67 -25 131z"/>
<glyph unicode="Ŋ" horiz-adv-x="1556" d="M184 0v1454h265l550 -840q25 -37 55 -93.5t48 -94.5l18 -37h4q-14 139 -14 225v840h262v-1366q0 -118 -32 -209.5t-83 -147t-122 -90.5t-141 -48t-148 -13v240q49 0 101 18t98 64.5t55 113.5l-541 822q-24 38 -54.5 94.5t-48.5 93.5l-18 37h-4q15 -139 15 -225v-838h-265 z"/>
<glyph unicode="ŋ" horiz-adv-x="1257" d="M143 0v1044h252v-147l-4 -45h4q19 37 48 71.5t73 69t108.5 55.5t139.5 21q364 0 364 -397v-707q0 -72 -17 -131.5t-44 -99.5t-65.5 -70.5t-77 -47.5t-83.5 -27.5t-79.5 -13.5t-69.5 -3q-21 0 -41 1.5t-29 2.5l-10 2v219q19 -2 45 -2q27 0 51.5 3.5t55 15t52.5 31.5t37 56 t15 85v632q0 104 -35.5 158.5t-127.5 54.5q-103 0 -178 -58.5t-105 -154.5q-19 -68 -19 -139v-479h-260z"/>
<glyph unicode="Ō" horiz-adv-x="1671" d="M84 737q0 154 58 291t157.5 236t239 157t297.5 58t297.5 -58t239 -157t157 -236t57.5 -291q0 -158 -57.5 -299t-157 -242.5t-239 -161t-297.5 -59.5t-297.5 59.5t-239 161t-157.5 242.5t-58 299zM356 737q0 -147 64 -266.5t174 -186.5t242 -67q201 0 340 149t139 371 q0 141 -64 256t-173.5 179.5t-241.5 64.5t-242 -64.5t-174 -179.5t-64 -256zM569 1604v178h537v-178h-537z"/>
<glyph unicode="ō" horiz-adv-x="1280" d="M66 522q0 157 77 283t208 195t288 69q118 0 224 -41t183.5 -112t122.5 -173.5t45 -220.5q0 -157 -77 -283t-207.5 -195t-288.5 -69q-159 0 -290 69t-208 195t-77 283zM330 522q0 -143 90.5 -234t220.5 -91q129 0 219 91t90 234q0 142 -90 234t-219 92q-130 0 -220.5 -92 t-90.5 -234zM373 1227v178h536v-178h-536z"/>
<glyph unicode="Ŏ" horiz-adv-x="1671" d="M84 737q0 154 58 291t157.5 236t239 157t297.5 58t297.5 -58t239 -157t157 -236t57.5 -291q0 -158 -57.5 -299t-157 -242.5t-239 -161t-297.5 -59.5t-297.5 59.5t-239 161t-157.5 242.5t-58 299zM356 737q0 -147 64 -266.5t174 -186.5t242 -67q201 0 340 149t139 371 q0 141 -64 256t-173.5 179.5t-241.5 64.5t-242 -64.5t-174 -179.5t-64 -256zM836 1542q-128 0 -217 70t-89 192v25h185v-25q0 -59 35 -90t86 -31q48 0 83 31.5t35 91.5v23h185v-25q0 -122 -88.5 -192t-214.5 -70z"/>
<glyph unicode="ŏ" horiz-adv-x="1280" d="M66 522q0 157 77 283t208 195t288 69q118 0 224 -41t183.5 -112t122.5 -173.5t45 -220.5q0 -157 -77 -283t-207.5 -195t-288.5 -69q-159 0 -290 69t-208 195t-77 283zM330 522q0 -143 90.5 -234t220.5 -91q129 0 219 91t90 234q0 142 -90 234t-219 92q-130 0 -220.5 -92 t-90.5 -234zM641 1165q-128 0 -216.5 70t-88.5 192v25h184v-25q0 -59 35.5 -89.5t85.5 -30.5q48 0 83.5 31t35.5 92v22h184v-25q0 -122 -88 -192t-215 -70z"/>
<glyph unicode="Ő" horiz-adv-x="1671" d="M84 737q0 154 58 291t157.5 236t239 157t297.5 58t297.5 -58t239 -157t157 -236t57.5 -291q0 -158 -57.5 -299t-157 -242.5t-239 -161t-297.5 -59.5t-297.5 59.5t-239 161t-157.5 242.5t-58 299zM356 737q0 -147 64 -266.5t174 -186.5t242 -67q201 0 340 149t139 371 q0 141 -64 256t-173.5 179.5t-241.5 64.5t-242 -64.5t-174 -179.5t-64 -256zM885 1550l155 279h256l-213 -279h-198zM526 1550l146 279h221l-152 -279h-215z"/>
<glyph unicode="ő" horiz-adv-x="1280" d="M66 522q0 157 77 283t208 195t288 69q118 0 224 -41t183.5 -112t122.5 -173.5t45 -220.5q0 -157 -77 -283t-207.5 -195t-288.5 -69q-159 0 -290 69t-208 195t-77 283zM330 522q0 -143 90.5 -234t220.5 -91q129 0 219 91t90 234q0 142 -90 234t-219 92q-130 0 -220.5 -92 t-90.5 -234zM688 1174l156 278h256l-213 -278h-199zM330 1174l145 278h221l-151 -278h-215z"/>
<glyph unicode="Œ" horiz-adv-x="1982" d="M82 729q0 154 59.5 291.5t161 236t243 156t300.5 57.5q62 0 142 -8t116 -8h758v-227h-609v-381h492v-228h-492v-391h641v-227h-790q-34 0 -115 -9t-143 -9q-159 0 -300.5 58.5t-243 158t-161 238t-59.5 292.5zM354 729q0 -144 63 -263t176 -188t253 -69q37 0 73.5 3.5 t54.5 7.5l17 3v1008q-61 14 -145 14q-140 0 -253 -69t-176 -187t-63 -260z"/>
<glyph unicode="œ" horiz-adv-x="2015" d="M68 520q0 160 76.5 286.5t205 194.5t283.5 68q279 0 432 -215h4q135 215 412 215q218 0 340.5 -140t122.5 -356l-7 -100h-718q10 -91 55.5 -154.5t111 -92.5t144.5 -29q47 0 95.5 11.5t83.5 28.5t64 34t43 29l15 11l100 -186q-6 -6 -18.5 -16t-54 -36t-87 -46t-116.5 -36 t-144 -16q-291 0 -436 222h-4q-156 -222 -438 -222q-156 0 -284 66.5t-204.5 192t-76.5 286.5zM1225 651h456q-3 101 -59.5 159t-142.5 58q-102 0 -169 -57.5t-85 -159.5zM330 520q0 -145 90 -234t221 -89q130 0 219.5 89.5t89.5 235.5q0 145 -90 235.5t-219 90.5 q-131 0 -221 -91t-90 -237z"/>
<glyph unicode="Ŕ" horiz-adv-x="1347" d="M184 0v1454h469q116 0 180.5 -9.5t112.5 -31.5q112 -50 175 -152.5t63 -244.5q0 -133 -66 -242.5t-180 -155.5v-4q20 -20 49 -71l299 -543h-295l-289 543h-253v-543h-265zM449 772h237q106 0 167.5 60.5t61.5 168.5q0 112 -59 169t-207 57h-200v-455zM530 1550l156 279 h268l-215 -279h-209z"/>
<glyph unicode="ŕ" horiz-adv-x="804" d="M143 0v1044h250v-180l-4 -73h4q37 116 126.5 192t205.5 76l47 -4v-256q-27 4 -61 4q-91 0 -171 -55t-114 -164q-23 -75 -23 -170v-414h-260zM371 1174l155 278h269l-215 -278h-209z"/>
<glyph unicode="Ŗ" horiz-adv-x="1347" d="M184 0v1454h469q116 0 180.5 -9.5t112.5 -31.5q112 -50 175 -152.5t63 -244.5q0 -133 -66 -242.5t-180 -155.5v-4q20 -20 49 -71l299 -543h-295l-289 543h-253v-543h-265zM449 772h237q106 0 167.5 60.5t61.5 168.5q0 112 -59 169t-207 57h-200v-455zM573 -113h215 q15 -56 15 -110q0 -87 -53 -199h-193q41 108 41 178q0 67 -25 131z"/>
<glyph unicode="ŗ" horiz-adv-x="804" d="M143 0v1044h250v-180l-4 -73h4q37 116 126.5 192t205.5 76l47 -4v-256q-27 4 -61 4q-91 0 -171 -55t-114 -164q-23 -75 -23 -170v-414h-260zM164 -113h215q14 -57 14 -110q0 -90 -53 -199h-193q41 108 41 178q0 66 -24 131z"/>
<glyph unicode="Ř" horiz-adv-x="1347" d="M184 0v1454h469q116 0 180.5 -9.5t112.5 -31.5q112 -50 175 -152.5t63 -244.5q0 -133 -66 -242.5t-180 -155.5v-4q20 -20 49 -71l299 -543h-295l-289 543h-253v-543h-265zM449 772h237q106 0 167.5 60.5t61.5 168.5q0 112 -59 169t-207 57h-200v-455zM512 1550l-188 279 h215l102 -166h4l103 166h215l-191 -279h-260z"/>
<glyph unicode="ř" horiz-adv-x="804" d="M143 0v1044h250v-180l-4 -73h4q37 116 126.5 192t205.5 76l47 -4v-256q-27 4 -61 4q-91 0 -171 -55t-114 -164q-23 -75 -23 -170v-414h-260zM354 1174l-188 278h215l102 -166h4l103 166h215l-191 -278h-260z"/>
<glyph unicode="Ś" horiz-adv-x="1134" d="M74 174l143 199q6 -6 18 -16.5t50.5 -37t78.5 -47t99.5 -37t116.5 -16.5q89 0 150 45.5t61 130.5q0 41 -23.5 76t-63.5 61t-91.5 50.5t-108 49t-113.5 51t-108.5 62t-91.5 78t-63.5 102.5t-23.5 132q0 181 139.5 301.5t348.5 120.5q80 0 154.5 -16t123 -39t85.5 -46 t54 -39l17 -16l-115 -215q-6 5 -16.5 13.5t-44 30.5t-69 39t-88 30.5t-103.5 13.5q-93 0 -156 -49t-63 -125q0 -41 23.5 -75t63 -59t91 -48t108 -46.5t113 -49.5t108 -61.5t91 -79t63 -105.5t23.5 -136q0 -87 -32.5 -164t-93 -135.5t-152 -92.5t-202.5 -34q-90 0 -175 20.5 t-141.5 49.5t-100 58.5t-64.5 50.5zM463 1550l155 279h269l-215 -279h-209z"/>
<glyph unicode="ś" horiz-adv-x="925" d="M55 129l119 182q5 -5 13.5 -12.5t37.5 -27t60 -34.5t78.5 -27.5t95.5 -12.5q58 0 97.5 25t39.5 69q0 31 -28 57t-73 46t-99 41t-108 49.5t-99 64t-73 90.5t-28 123q0 142 112.5 224.5t286.5 82.5q66 0 126.5 -12.5t99.5 -29.5t68.5 -34.5t42.5 -30.5l14 -12l-97 -192 q-4 4 -11.5 10t-32.5 21.5t-53 27.5t-71 21.5t-88 9.5q-55 0 -94 -24t-39 -70q0 -30 28 -54.5t73 -44t99 -40.5t108 -49t99 -63.5t73 -90.5t28 -123q0 -134 -109 -224t-290 -90q-73 0 -141.5 16t-114.5 38.5t-81.5 45t-51.5 38.5zM352 1174l156 278h268l-215 -278h-209z"/>
<glyph unicode="Ŝ" horiz-adv-x="1134" d="M74 174l143 199q6 -6 18 -16.5t50.5 -37t78.5 -47t99.5 -37t116.5 -16.5q89 0 150 45.5t61 130.5q0 41 -23.5 76t-63.5 61t-91.5 50.5t-108 49t-113.5 51t-108.5 62t-91.5 78t-63.5 102.5t-23.5 132q0 181 139.5 301.5t348.5 120.5q80 0 154.5 -16t123 -39t85.5 -46 t54 -39l17 -16l-115 -215q-6 5 -16.5 13.5t-44 30.5t-69 39t-88 30.5t-103.5 13.5q-93 0 -156 -49t-63 -125q0 -41 23.5 -75t63 -59t91 -48t108 -46.5t113 -49.5t108 -61.5t91 -79t63 -105.5t23.5 -136q0 -87 -32.5 -164t-93 -135.5t-152 -92.5t-202.5 -34q-90 0 -175 20.5 t-141.5 49.5t-100 58.5t-64.5 50.5zM256 1550l188 279h261l190 -279h-215l-102 166h-5l-102 -166h-215z"/>
<glyph unicode="ŝ" horiz-adv-x="925" d="M55 129l119 182q5 -5 13.5 -12.5t37.5 -27t60 -34.5t78.5 -27.5t95.5 -12.5q58 0 97.5 25t39.5 69q0 31 -28 57t-73 46t-99 41t-108 49.5t-99 64t-73 90.5t-28 123q0 142 112.5 224.5t286.5 82.5q66 0 126.5 -12.5t99.5 -29.5t68.5 -34.5t42.5 -30.5l14 -12l-97 -192 q-4 4 -11.5 10t-32.5 21.5t-53 27.5t-71 21.5t-88 9.5q-55 0 -94 -24t-39 -70q0 -30 28 -54.5t73 -44t99 -40.5t108 -49t99 -63.5t73 -90.5t28 -123q0 -134 -109 -224t-290 -90q-73 0 -141.5 16t-114.5 38.5t-81.5 45t-51.5 38.5zM147 1174l189 278h260l190 -278h-215 l-102 165h-4l-103 -165h-215z"/>
<glyph unicode="Ş" horiz-adv-x="1134" d="M74 174l143 199q6 -6 18 -16.5t50.5 -37t78.5 -47t99.5 -37t116.5 -16.5q89 0 150 45.5t61 130.5q0 41 -23.5 76t-63.5 61t-91.5 50.5t-108 49t-113.5 51t-108.5 62t-91.5 78t-63.5 102.5t-23.5 132q0 181 139.5 301.5t348.5 120.5q80 0 154.5 -16t123 -39t85.5 -46 t54 -39l17 -16l-115 -215q-6 5 -16.5 13.5t-44 30.5t-69 39t-88 30.5t-103.5 13.5q-93 0 -156 -49t-63 -125q0 -41 23.5 -75t63 -59t91 -48t108 -46.5t113 -49.5t108 -61.5t91 -79t63 -105.5t23.5 -136q0 -166 -111.5 -284.5t-304.5 -136.5l-14 -70q67 -8 108 -47.5 t41 -108.5q0 -94 -63.5 -137t-157.5 -43q-31 0 -62.5 3.5t-46.5 6.5l-16 4v144q43 -17 88 -17q90 0 90 58q0 55 -98 55l-43 -4l43 156q-79 6 -152.5 28.5t-122.5 49.5t-86.5 53.5t-54.5 44.5z"/>
<glyph unicode="ş" horiz-adv-x="925" d="M55 129l119 182q5 -5 13.5 -12.5t37.5 -27t60 -34.5t78.5 -27.5t95.5 -12.5q58 0 97.5 25t39.5 69q0 31 -28 57t-73 46t-99 41t-108 49.5t-99 64t-73 90.5t-28 123q0 142 112.5 224.5t286.5 82.5q66 0 126.5 -12.5t99.5 -29.5t68.5 -34.5t42.5 -30.5l14 -12l-97 -192 q-4 4 -11.5 10t-32.5 21.5t-53 27.5t-71 21.5t-88 9.5q-55 0 -94 -24t-39 -70q0 -30 28 -54.5t73 -44t99 -40.5t108 -49t99 -63.5t73 -90.5t28 -123q0 -124 -92.5 -210.5t-251.5 -101.5l-14 -67q67 -8 108 -47.5t41 -108.5q0 -94 -63.5 -137t-157.5 -43q-31 0 -62.5 3.5 t-47.5 6.5l-15 4v144q43 -17 88 -17q90 0 90 58q0 55 -98 55l-43 -4l43 156q-60 7 -115.5 24.5t-93 38.5t-66 40.5t-42.5 32.5z"/>
<glyph unicode="Š" horiz-adv-x="1134" d="M74 174l143 199q6 -6 18 -16.5t50.5 -37t78.5 -47t99.5 -37t116.5 -16.5q89 0 150 45.5t61 130.5q0 41 -23.5 76t-63.5 61t-91.5 50.5t-108 49t-113.5 51t-108.5 62t-91.5 78t-63.5 102.5t-23.5 132q0 181 139.5 301.5t348.5 120.5q80 0 154.5 -16t123 -39t85.5 -46 t54 -39l17 -16l-115 -215q-6 5 -16.5 13.5t-44 30.5t-69 39t-88 30.5t-103.5 13.5q-93 0 -156 -49t-63 -125q0 -41 23.5 -75t63 -59t91 -48t108 -46.5t113 -49.5t108 -61.5t91 -79t63 -105.5t23.5 -136q0 -87 -32.5 -164t-93 -135.5t-152 -92.5t-202.5 -34q-90 0 -175 20.5 t-141.5 49.5t-100 58.5t-64.5 50.5zM444 1550l-188 279h215l102 -166h5l102 166h215l-190 -279h-261z"/>
<glyph unicode="š" horiz-adv-x="925" d="M55 129l119 182q5 -5 13.5 -12.5t37.5 -27t60 -34.5t78.5 -27.5t95.5 -12.5q58 0 97.5 25t39.5 69q0 31 -28 57t-73 46t-99 41t-108 49.5t-99 64t-73 90.5t-28 123q0 142 112.5 224.5t286.5 82.5q66 0 126.5 -12.5t99.5 -29.5t68.5 -34.5t42.5 -30.5l14 -12l-97 -192 q-4 4 -11.5 10t-32.5 21.5t-53 27.5t-71 21.5t-88 9.5q-55 0 -94 -24t-39 -70q0 -30 28 -54.5t73 -44t99 -40.5t108 -49t99 -63.5t73 -90.5t28 -123q0 -134 -109 -224t-290 -90q-73 0 -141.5 16t-114.5 38.5t-81.5 45t-51.5 38.5zM336 1174l-189 278h215l103 -166h4l102 166 h215l-190 -278h-260z"/>
<glyph unicode="Ţ" horiz-adv-x="1234" d="M485 0v1227h-477v227h1219v-227h-477v-1227h-68l-20 -90q66 -8 107.5 -47.5t41.5 -108.5q0 -49 -18.5 -85t-51 -56t-70 -29.5t-81.5 -9.5q-31 0 -62.5 3.5t-47.5 6.5l-15 4v144q43 -17 88 -17q90 0 90 58q0 55 -98 55l-43 -4l49 176h-66z"/>
<glyph unicode="ţ" horiz-adv-x="774" d="M190 383v438h-135v207h142v301h254v-301h237v-207h-237v-405q0 -49 15 -86t36.5 -57.5t51.5 -33.5t54 -16.5t49 -3.5l48 4v-227q-31 -6 -80 -6q-67 0 -121 10l-21 -90q67 -8 108.5 -47.5t41.5 -108.5q0 -49 -18.5 -85t-51 -56t-70 -29.5t-81.5 -9.5q-31 0 -62.5 3.5 t-47.5 6.5l-15 4v144q43 -17 88 -17q90 0 90 58q0 55 -98 55l-43 -4l59 215q-193 91 -193 344z"/>
<glyph unicode="Ť" horiz-adv-x="1234" d="M485 0v1227h-477v227h1219v-227h-477v-1227h-265zM483 1550l-188 279h215l102 -166h4l103 166h215l-191 -279h-260z"/>
<glyph unicode="ť" horiz-adv-x="772" d="M188 383v438h-135v207h142v301h254v-301h237v-207h-237v-405q0 -49 15 -86t36.5 -57.5t51.5 -33.5t54 -16.5t49 -3.5l47 4v-227q-30 -6 -79 -6q-36 0 -70.5 3t-79.5 13.5t-83 27.5t-76.5 47.5t-65 70.5t-43.5 99.5t-17 131.5zM557 1454h215q14 -55 14 -106 q0 -85 -53 -191h-192q41 109 41 172q0 60 -25 125z"/>
<glyph unicode="Ŧ" horiz-adv-x="1275" d="M197 604v197h309v426h-477v227h1216v-227h-477v-426h319v-197h-319v-604h-262v604h-309z"/>
<glyph unicode="ŧ" horiz-adv-x="817" d="M68 489v173h149v159h-135v207h141v301h254v-301h238v-207h-238v-159h223v-173h-223v-86q0 -56 21.5 -95t56 -57t65.5 -25t64 -7l47 4v-227q-31 -6 -80 -6q-36 0 -70 3t-79 13.5t-83 27.5t-76.5 47.5t-65 70.5t-43.5 99.5t-17 131.5v106h-149z"/>
<glyph unicode="Ũ" horiz-adv-x="1501" d="M164 522v932h264v-932q0 -144 87 -224.5t235 -80.5t235.5 81t87.5 226v930h264v-932q0 -244 -161.5 -395.5t-423.5 -151.5q-264 0 -426 151.5t-162 395.5zM379 1552q0 281 229 281q46 0 86 -21t63 -45.5t52.5 -45.5t56.5 -21q41 0 60.5 36t19.5 91h176q0 -281 -229 -281 q-46 0 -86 21t-63 45.5t-52.5 45.5t-56.5 21q-40 0 -59 -35.5t-19 -91.5h-178z"/>
<glyph unicode="ũ" horiz-adv-x="1247" d="M129 373v671h260v-618q0 -104 35.5 -158.5t126.5 -54.5q135 0 214 102.5t79 249.5v479h260v-1044h-250v119l4 74h-4q-42 -89 -139 -153.5t-223 -64.5q-363 0 -363 398zM246 1176q0 280 229 280q46 0 86 -21t63 -45.5t52.5 -45.5t56.5 -21q41 0 60.5 36t19.5 91h176 q0 -281 -229 -281q-46 0 -86 21t-63 46t-52.5 46t-56.5 21q-41 0 -59.5 -35.5t-18.5 -91.5h-178z"/>
<glyph unicode="Ū" horiz-adv-x="1501" d="M164 522v932h264v-932q0 -144 87 -224.5t235 -80.5t235.5 81t87.5 226v930h264v-932q0 -244 -161.5 -395.5t-423.5 -151.5q-264 0 -426 151.5t-162 395.5zM483 1604v178h537v-178h-537z"/>
<glyph unicode="ū" horiz-adv-x="1247" d="M129 373v671h260v-618q0 -104 35.5 -158.5t126.5 -54.5q135 0 214 102.5t79 249.5v479h260v-1044h-250v119l4 74h-4q-42 -89 -139 -153.5t-223 -64.5q-363 0 -363 398zM350 1227v178h537v-178h-537z"/>
<glyph unicode="Ŭ" horiz-adv-x="1501" d="M164 522v932h264v-932q0 -144 87 -224.5t235 -80.5t235.5 81t87.5 226v930h264v-932q0 -244 -161.5 -395.5t-423.5 -151.5q-264 0 -426 151.5t-162 395.5zM752 1542q-128 0 -217 70t-89 192v25h185v-25q0 -59 35 -90t86 -31q48 0 83 31.5t35 91.5v23h185v-25 q0 -122 -88.5 -192t-214.5 -70z"/>
<glyph unicode="ŭ" horiz-adv-x="1247" d="M129 373v671h260v-618q0 -104 35.5 -158.5t126.5 -54.5q135 0 214 102.5t79 249.5v479h260v-1044h-250v119l4 74h-4q-42 -89 -139 -153.5t-223 -64.5q-363 0 -363 398zM618 1165q-128 0 -216.5 70t-88.5 192v25h185v-25q0 -59 35 -89.5t85 -30.5q49 0 84 31t35 92v22h185 v-25q0 -122 -88.5 -192t-215.5 -70z"/>
<glyph unicode="Ů" horiz-adv-x="1501" d="M164 522v932h264v-932q0 -144 87 -224.5t235 -80.5t235.5 81t87.5 226v930h264v-932q0 -244 -161.5 -395.5t-423.5 -151.5q-264 0 -426 151.5t-162 395.5zM752 1526q-80 0 -137.5 42.5t-57.5 117.5t57.5 118t137.5 43q78 0 135 -43t57 -118t-57 -117.5t-135 -42.5z M752 1616q31 0 50 19.5t19 50.5q0 32 -19 51.5t-50 19.5t-50.5 -19.5t-19.5 -51.5q0 -31 19 -50.5t51 -19.5z"/>
<glyph unicode="ů" horiz-adv-x="1247" d="M129 373v671h260v-618q0 -104 35.5 -158.5t126.5 -54.5q135 0 214 102.5t79 249.5v479h260v-1044h-250v119l4 74h-4q-42 -89 -139 -153.5t-223 -64.5q-363 0 -363 398zM618 1149q-79 0 -136.5 42.5t-57.5 117.5t57.5 118t136.5 43q78 0 135.5 -43t57.5 -118t-57.5 -117.5 t-135.5 -42.5zM618 1239q31 0 50.5 19.5t19.5 50.5q0 32 -19.5 51.5t-50.5 19.5q-30 0 -49.5 -19.5t-19.5 -51.5q0 -31 18.5 -50.5t50.5 -19.5z"/>
<glyph unicode="Ű" horiz-adv-x="1501" d="M164 522v932h264v-932q0 -144 87 -224.5t235 -80.5t235.5 81t87.5 226v930h264v-932q0 -244 -161.5 -395.5t-423.5 -151.5q-264 0 -426 151.5t-162 395.5zM799 1550l155 279h256l-213 -279h-198zM440 1550l146 279h221l-152 -279h-215z"/>
<glyph unicode="ű" horiz-adv-x="1247" d="M129 373v671h260v-618q0 -104 35.5 -158.5t126.5 -54.5q135 0 214 102.5t79 249.5v479h260v-1044h-250v119l4 74h-4q-42 -89 -139 -153.5t-223 -64.5q-363 0 -363 398zM666 1174l155 278h256l-213 -278h-198zM307 1174l146 278h221l-152 -278h-215z"/>
<glyph unicode="Ų" horiz-adv-x="1497" d="M657 -229q0 105 107 200v4h-14q-264 0 -425 151t-161 396v932h262v-932q0 -144 87 -224.5t235 -80.5t235.5 81t87.5 226v930h262v-932q0 -80 -18 -149t-43.5 -116t-67 -91.5t-74.5 -70.5t-81 -58q-85 -57 -131 -102.5t-46 -94.5q0 -29 25 -47t49 -22l25 -4l-62 -193 q-5 0 -14 1.5t-35.5 7.5t-50 14t-53 23.5t-50 35t-35 49.5t-14.5 66z"/>
<glyph unicode="ų" horiz-adv-x="1247" d="M129 373v671h260v-618q0 -104 35.5 -158.5t126.5 -54.5q135 0 214 102.5t79 249.5v479h260v-1044q-115 -97 -115 -160q0 -29 24.5 -47t48.5 -22l25 -4l-61 -193q-5 0 -14 1.5t-35.5 7.5t-50 14t-53 23.5t-50 35t-35 49.5t-14.5 66q0 110 133 225v4h-53v119l4 74h-4 q-42 -89 -139 -153.5t-223 -64.5q-363 0 -363 398z"/>
<glyph unicode="Ŵ" horiz-adv-x="1978" d="M1102 1454l258 -1005q10 -37 16 -76t7.5 -58.5t2.5 -19.5h5q6 72 24 154l240 1005h272l-375 -1454h-305l-223 860q-11 42 -20.5 89.5t-13.5 74.5l-3 27h-4q-12 -97 -37 -191l-223 -860h-305l-365 1454h273l229 -1005q8 -36 14 -74.5t9 -58.5l2 -21h4q1 0 2.5 19.5 t7.5 58.5t16 76l262 1005h230zM674 1550l188 279h260l191 -279h-215l-103 166h-4l-102 -166h-215z"/>
<glyph unicode="ŵ" horiz-adv-x="1681" d="M348 0l-319 1044h274l182 -686q7 -24 12 -51.5t7 -42.5l2 -16h4q10 55 25 110l192 684h231l193 -684l23 -110h4q8 55 22 110l182 686h271l-318 -1044h-288l-177 596l-26 113h-4q-9 -58 -25 -113l-176 -596h-291zM522 1174l189 278h260l190 -278h-215l-102 165h-4 l-103 -165h-215z"/>
<glyph unicode="Ŷ" horiz-adv-x="1239" d="M487 0v608l-483 846h299l227 -428q21 -39 43 -89t33 -78.5t12 -27.5h5q41 105 88 195l225 428h299l-483 -846v-608h-265zM301 1550l188 279h261l190 -279h-215l-102 166h-5l-102 -166h-215z"/>
<glyph unicode="ŷ" horiz-adv-x="1067" d="M2 -362l86 194q57 -43 117 -43q56 0 104 34t76 101l39 92l-440 1028h292l220 -602q9 -24 18.5 -59.5t15.5 -58.5l5 -23h4q16 82 34 137l205 606h285l-467 -1202q-53 -137 -152.5 -204.5t-224.5 -67.5q-56 0 -110 17t-81 34zM217 1174l189 278h260l190 -278h-215l-102 165 h-4l-103 -165h-215z"/>
<glyph unicode="Ÿ" horiz-adv-x="1239" d="M487 0v608l-483 846h299l227 -428q21 -39 43 -89t33 -78.5t12 -27.5h5q41 105 88 195l225 428h299l-483 -846v-608h-265zM711 1591v238h198v-238h-198zM334 1591v238h201v-238h-201z"/>
<glyph unicode="Ź" horiz-adv-x="1257" d="M78 0v170l645 926q25 37 51.5 70t40.5 47l14 14v4q-41 -4 -108 -4h-610v227h1050v-168l-645 -928q-25 -37 -51.5 -70t-40.5 -47l-14 -14v-4q41 4 108 4h651v-227h-1091zM539 1550l155 279h269l-215 -279h-209z"/>
<glyph unicode="ź" horiz-adv-x="1073" d="M72 0v139l469 588q21 26 43 50t34 35l11 11v4q-31 -4 -97 -4h-440v221h889v-141l-469 -588q-21 -26 -43.5 -50t-34.5 -35l-12 -11v-4q31 6 98 6h475v-221h-923zM414 1174l155 278h269l-215 -278h-209z"/>
<glyph unicode="Ż" horiz-adv-x="1257" d="M78 0v170l645 926q25 37 51.5 70t40.5 47l14 14v4q-41 -4 -108 -4h-610v227h1050v-168l-645 -928q-25 -37 -51.5 -70t-40.5 -47l-14 -14v-4q41 4 108 4h651v-227h-1091zM541 1602v227h221v-227h-221z"/>
<glyph unicode="ż" horiz-adv-x="1073" d="M72 0v139l469 588q21 26 43 50t34 35l11 11v4q-31 -4 -97 -4h-440v221h889v-141l-469 -588q-21 -26 -43.5 -50t-34.5 -35l-12 -11v-4q31 6 98 6h475v-221h-923zM416 1225v227h221v-227h-221z"/>
<glyph unicode="Ž" horiz-adv-x="1257" d="M78 0v170l645 926q25 37 51.5 70t40.5 47l14 14v4q-41 -4 -108 -4h-610v227h1050v-168l-645 -928q-25 -37 -51.5 -70t-40.5 -47l-14 -14v-4q41 4 108 4h651v-227h-1091zM520 1550l-188 279h215l102 -166h4l103 166h215l-191 -279h-260z"/>
<glyph unicode="ž" horiz-adv-x="1073" d="M72 0v139l469 588q21 26 43 50t34 35l11 11v4q-31 -4 -97 -4h-440v221h889v-141l-469 -588q-21 -26 -43.5 -50t-34.5 -35l-12 -11v-4q31 6 98 6h475v-221h-923zM395 1174l-188 278h215l102 -166h4l103 166h215l-191 -278h-260z"/>
<glyph unicode="ſ" horiz-adv-x="600" d="M197 0v821h-129v207h129v47q0 71 16 129t42.5 97.5t63.5 69.5t74.5 46.5t81.5 27t78.5 14t69.5 3.5q24 0 46 -1.5t32 -2.5l10 -2v-221q-23 4 -54 4q-26 0 -49.5 -3.5t-52 -14.5t-49.5 -29t-35 -51t-14 -76v-1065h-260z"/>
<glyph unicode="ƒ" horiz-adv-x="1165" d="M41 -4q90 -12 137 -12q25 0 49 3.5t54 15t52.5 31t40 55.5t21.5 83l45 512h-153v207h170l20 199q8 83 35 148t67 106t84.5 69t96.5 41.5t92.5 19t83.5 5.5q32 0 76 -4.5t72 -8.5l28 -4v-221q-111 14 -160 14q-26 0 -50 -3.5t-54 -15.5t-52.5 -32t-40 -56t-22.5 -83 l-16 -174h221v-207h-240l-47 -537q-6 -71 -27.5 -129.5t-50.5 -98t-69 -69t-78.5 -46.5t-83 -27.5t-79 -13.5t-70.5 -3q-30 0 -68 4t-61 8l-23 3v221z"/>
<glyph unicode="Ș" horiz-adv-x="1134" d="M74 174l143 199q6 -6 18 -16.5t50.5 -37t78.5 -47t99.5 -37t116.5 -16.5q89 0 150 45.5t61 130.5q0 41 -23.5 76t-63.5 61t-91.5 50.5t-108 49t-113.5 51t-108.5 62t-91.5 78t-63.5 102.5t-23.5 132q0 181 139.5 301.5t348.5 120.5q80 0 154.5 -16t123 -39t85.5 -46 t54 -39l17 -16l-115 -215q-6 5 -16.5 13.5t-44 30.5t-69 39t-88 30.5t-103.5 13.5q-93 0 -156 -49t-63 -125q0 -41 23.5 -75t63 -59t91 -48t108 -46.5t113 -49.5t108 -61.5t91 -79t63 -105.5t23.5 -136q0 -87 -32.5 -164t-93 -135.5t-152 -92.5t-202.5 -34q-90 0 -175 20.5 t-141.5 49.5t-100 58.5t-64.5 50.5zM449 -113h215q14 -57 14 -110q0 -87 -53 -199h-193q41 108 41 178q0 66 -24 131z"/>
<glyph unicode="ș" horiz-adv-x="925" d="M55 129l119 182q5 -5 13.5 -12.5t37.5 -27t60 -34.5t78.5 -27.5t95.5 -12.5q58 0 97.5 25t39.5 69q0 31 -28 57t-73 46t-99 41t-108 49.5t-99 64t-73 90.5t-28 123q0 142 112.5 224.5t286.5 82.5q66 0 126.5 -12.5t99.5 -29.5t68.5 -34.5t42.5 -30.5l14 -12l-97 -192 q-4 4 -11.5 10t-32.5 21.5t-53 27.5t-71 21.5t-88 9.5q-55 0 -94 -24t-39 -70q0 -30 28 -54.5t73 -44t99 -40.5t108 -49t99 -63.5t73 -90.5t28 -123q0 -134 -109 -224t-290 -90q-73 0 -141.5 16t-114.5 38.5t-81.5 45t-51.5 38.5zM348 -113h215q15 -61 15 -110 q0 -88 -54 -199h-192q41 113 41 178q0 67 -25 131z"/>
<glyph unicode="Ț" horiz-adv-x="1234" d="M485 0v1227h-477v227h1219v-227h-477v-1227h-265zM496 -113h215q14 -57 14 -110q0 -90 -53 -199h-193q41 108 41 178q0 66 -24 131z"/>
<glyph unicode="ț" horiz-adv-x="772" d="M188 383v438h-135v207h142v301h254v-301h237v-207h-237v-405q0 -49 15 -86t36.5 -57.5t51.5 -33.5t54 -16.5t49 -3.5l47 4v-227q-30 -6 -79 -6q-36 0 -70.5 3t-79.5 13.5t-83 27.5t-76.5 47.5t-65 70.5t-43.5 99.5t-17 131.5zM342 -113h215q14 -57 14 -110 q0 -90 -53 -199h-192q41 113 41 178q0 63 -25 131z"/>
<glyph unicode="ˆ" horiz-adv-x="1011" d="M186 1550l189 279h260l190 -279h-215l-102 166h-4l-103 -166h-215z"/>
<glyph unicode="ˇ" horiz-adv-x="1011" d="M375 1550l-189 279h215l103 -166h4l102 166h215l-190 -279h-260z"/>
<glyph unicode="˘" horiz-adv-x="1009" d="M506 1542q-128 0 -216.5 70t-88.5 192v25h184v-25q0 -59 35 -90t86 -31q48 0 83.5 31.5t35.5 91.5v23h184v-25q0 -122 -88 -192t-215 -70z"/>
<glyph unicode="˙" horiz-adv-x="1011" d="M395 1602v227h221v-227h-221z"/>
<glyph unicode="˚" horiz-adv-x="1011" d="M506 1526q-79 0 -137 42.5t-58 117.5t58 118t137 43q78 0 135 -43t57 -118t-57 -117.5t-135 -42.5zM506 1616q31 0 50 19.5t19 50.5q0 32 -19 51.5t-50 19.5t-50.5 -19.5t-19.5 -51.5q0 -31 19 -50.5t51 -19.5z"/>
<glyph unicode="˛" horiz-adv-x="1011" d="M328 -229q0 46 21.5 91.5t52.5 78t61.5 58.5t52.5 39l21 13l147 -26q-6 -4 -15.5 -12t-33.5 -31t-43 -44.5t-34 -49t-15 -48.5q0 -29 25 -47t50 -22l25 -4l-63 -193q-5 0 -14 1.5t-35.5 7.5t-50 14t-53 23.5t-50 35t-35 49.5t-14.5 66z"/>
<glyph unicode="˜" horiz-adv-x="1009" d="M133 1552q0 281 229 281q47 0 87 -21t63 -45.5t52.5 -45.5t56.5 -21q40 0 59.5 36t19.5 91h177q0 -281 -230 -281q-46 0 -86 21t-63 45.5t-52.5 45.5t-56.5 21q-40 0 -59 -35.5t-19 -91.5h-178z"/>
<glyph unicode="˝" horiz-adv-x="1009" d="M479 1550l156 279h256l-213 -279h-199zM121 1550l145 279h221l-151 -279h-215z"/>
<glyph unicode="ẞ" horiz-adv-x="1433" d="M168 0v1016q0 192 125 315t321 123h666v-182l-248 -371l-45 -63v-4l37 -3q142 -19 229.5 -137.5t87.5 -263.5q0 -181 -129.5 -305.5t-316.5 -124.5h-305v227h287q87 0 139.5 60t52.5 143t-52.5 141t-139.5 58h-172v182l182 289q25 42 48 73.5t33 42.5l11 11v4 q-16 -4 -90 -4h-271q-79 0 -132.5 -59.5t-53.5 -147.5v-1020h-264z"/>
<glyph unicode=" " horiz-adv-x="32"/>
<glyph unicode="–" horiz-adv-x="1452" d="M160 483v203h1132v-203h-1132z"/>
<glyph unicode="—" horiz-adv-x="1861" d="M160 483v203h1542v-203h-1542z"/>
<glyph unicode="‘" horiz-adv-x="485" d="M82 1032l154 447h182l-96 -447h-240z"/>
<glyph unicode="’" horiz-adv-x="473" d="M90 1030l96 449h240l-152 -449h-184z"/>
<glyph unicode="‚" horiz-adv-x="512" d="M66 -182l96 446h233l-153 -446h-176z"/>
<glyph unicode="“" horiz-adv-x="821" d="M418 1032l151 447h185l-97 -447h-239zM82 1032l154 447h184l-98 -447h-240z"/>
<glyph unicode="”" d="M426 1030l96 449h240l-152 -449h-184zM90 1030l96 449h242l-154 -449h-184z"/>
<glyph unicode="„" horiz-adv-x="837" d="M393 -182l96 446h232l-152 -446h-176zM66 -182l96 446h233l-153 -446h-176z"/>
<glyph unicode="†" horiz-adv-x="909" d="M328 -102v944h-254v202h254v410h250v-410h258v-202h-258v-944h-250z"/>
<glyph unicode="‡" horiz-adv-x="974" d="M106 334v201h254v307h-254v202h254v410h250v-410h258v-202h-258v-307h258v-201h-258v-436h-250v436h-254z"/>
<glyph unicode="•" horiz-adv-x="851" d="M426 254q-141 0 -241.5 100.5t-100.5 241.5t100.5 241.5t241.5 100.5q142 0 242 -100.5t100 -241.5t-100 -241.5t-242 -100.5z"/>
<glyph unicode="…" horiz-adv-x="1683" d="M1298 0v260h252v-260h-252zM715 0v260h252v-260h-252zM133 0v260h250v-260h-250z"/>
<glyph unicode="‰" horiz-adv-x="2385" d="M412 831q-139 0 -236.5 94.5t-97.5 229.5q0 133 98 228.5t236 95.5t237 -96t99 -228q0 -135 -99 -229.5t-237 -94.5zM129 0l1116 1454h240l-1116 -1454h-240zM412 1020q57 0 97 39t40 96q0 55 -40.5 95t-96.5 40q-57 0 -96.5 -39.5t-39.5 -95.5q0 -57 39.5 -96t96.5 -39z M1636 297q0 133 97.5 228.5t236.5 95.5q138 0 237 -96t99 -228q0 -133 -99 -227.5t-237 -94.5q-139 0 -236.5 94t-97.5 228zM872 297q0 133 97.5 228.5t236.5 95.5q138 0 236 -95.5t98 -228.5q0 -134 -97.5 -228t-236.5 -94t-236.5 94t-97.5 228zM1835 299q0 -57 39 -96 t96 -39t97 39t40 96q0 56 -40 95.5t-97 39.5t-96 -39.5t-39 -95.5zM1071 299q0 -57 39 -96t96 -39t97 39t40 96q0 56 -40 95.5t-97 39.5t-96 -39.5t-39 -95.5z"/>
<glyph unicode="‹" horiz-adv-x="737" d="M408 158l-336 420l336 421h247l-336 -421l336 -420h-247z"/>
<glyph unicode="›" horiz-adv-x="737" d="M82 158l336 420l-336 421h248l336 -421l-336 -420h-248z"/>
<glyph unicode="⁄" horiz-adv-x="366" d="M-66 0h-190l688 1454h189z"/>
<glyph unicode="⁰" d="M406 846q-92 0 -158 35.5t-104 101.5t-55 148t-17 186q0 103 17 184.5t55 147.5t104 101.5t158 35.5q331 0 331 -469q0 -471 -331 -471zM406 1024q135 0 135 293q0 289 -135 289q-138 0 -138 -289q0 -293 138 -293z"/>
<glyph unicode="⁴" d="M459 866v203h-418v131l387 565h221v-528h119v-168h-119v-203h-190zM240 1237h219v225l6 113h-4q-25 -55 -53 -96l-168 -238v-4z"/>
<glyph unicode="⁵" d="M391 846q-56 0 -108.5 14t-87.5 34t-61.5 40.5t-39.5 34.5l-12 14l106 137q3 -4 8 -10.5t23.5 -23t39 -29t52.5 -23t66 -10.5q64 0 111 39t47 100t-47 101.5t-115 40.5q-38 0 -74.5 -9.5t-54.5 -18.5l-17 -9l-104 39l45 458h502v-172h-344l-9 -96l-10 -51l4 -2 q43 16 105 16q138 0 226.5 -87.5t88.5 -211.5q0 -128 -93.5 -221.5t-246.5 -93.5z"/>
<glyph unicode="⁶" d="M432 846q-149 0 -250.5 112t-101.5 308q0 74 16 147t50 140.5t82 119t117.5 82.5t150.5 31q52 0 102 -12t74 -24l24 -11l-55 -166q-72 33 -135 33q-78 0 -132 -55t-73 -144h4q53 43 129 43q140 0 223.5 -83.5t83.5 -211.5q0 -132 -86 -220.5t-223 -88.5zM432 1024 q53 0 84 38t31 95q0 64 -38 108t-106 44q-50 0 -87 -25t-37 -57q0 -81 44 -142t109 -61z"/>
<glyph unicode="⁷" d="M104 866l359 650l49 77v4q-37 -4 -80 -4h-342v172h643v-133l-416 -766h-213z"/>
<glyph unicode="⁸" d="M68 1126q0 39 14.5 76.5t38.5 66.5t44.5 48t41.5 35q-96 72 -96 184q0 118 88 184t211 66q78 0 146 -27.5t113.5 -86.5t45.5 -138q0 -38 -14 -78t-35.5 -70t-35.5 -46.5t-24 -26.5q127 -76 127 -203q0 -118 -97 -191t-230 -73q-87 0 -162 30t-125.5 95.5t-50.5 154.5z M539 1120q0 16 -5.5 30.5t-18.5 27.5t-24 22.5t-34.5 22t-37 19t-44 20.5t-43.5 20q-76 -71 -76 -145q0 -57 43.5 -91t103.5 -34q53 0 94.5 30t41.5 78zM297 1528q0 -27 12.5 -49t42.5 -41.5t52 -30t69 -31.5q59 77 59 146q0 45 -37 70.5t-85 25.5t-80.5 -23t-32.5 -67z"/>
<glyph unicode="⁹" d="M70 1477q0 132 85 220.5t222 88.5q150 0 252 -113.5t102 -308.5q0 -73 -16 -146t-50 -140t-82 -118.5t-118 -82.5t-152 -31q-52 0 -102 12t-74 24l-24 11l57 166q70 -33 133 -33q78 0 132 54t75 143h-4q-57 -43 -129 -43q-141 0 -224 84.5t-83 212.5zM262 1475 q0 -64 38.5 -109t105.5 -45q51 0 87.5 25t36.5 57q0 80 -44.5 141.5t-108.5 61.5q-53 0 -84 -37.5t-31 -93.5z"/>
<glyph unicode="₀" d="M406 -342q-92 0 -158 35.5t-104 101.5t-55 148t-17 186q0 103 17 184.5t55 147.5t104 101.5t158 35.5q331 0 331 -469q0 -471 -331 -471zM406 -164q135 0 135 293q0 289 -135 289q-138 0 -138 -289q0 -293 138 -293z"/>
<glyph unicode="₁" d="M137 -322v170h189v424l4 58h-4q-9 -19 -31 -39l-64 -60l-114 123l231 224h172v-730h187v-170h-570z"/>
<glyph unicode="₂" d="M98 -322q-8 58 -8 84q0 72 23.5 132.5t61 101t82.5 75t90 62t82.5 53.5t61 57.5t23.5 67.5q0 47 -36 77t-91 30q-41 0 -81.5 -23.5t-60.5 -46.5l-20 -24l-127 112q4 7 11.5 17.5t35.5 38.5t60 49.5t84.5 39t109.5 17.5q130 0 221 -75t91 -204q0 -59 -21.5 -109.5 t-56 -85.5t-76.5 -65t-85 -55t-79 -48t-60.5 -50.5t-27.5 -57.5h418v-170h-625z"/>
<glyph unicode="₃" d="M379 -342q-58 0 -110.5 14t-86.5 34t-59.5 40.5t-36.5 34.5l-12 14l102 137q3 -4 8.5 -10.5t25 -23t41 -29t55 -23t69.5 -10.5q61 0 104 37t43 92t-47 86t-113 31h-71l-41 92l162 184q7 9 19.5 21.5l20.5 20.5l9 8v4q-41 -6 -72 -6h-264v172h573v-125l-202 -230 q101 -19 162 -86t61 -174q0 -124 -94 -214.5t-246 -90.5z"/>
<glyph unicode="₄" d="M459 -322v203h-418v131l387 566h221v-529h119v-168h-119v-203h-190zM240 49h219v225l6 113h-4q-25 -55 -53 -96l-168 -238v-4z"/>
<glyph unicode="₅" d="M391 -342q-56 0 -108.5 14t-87.5 34t-61.5 40.5t-39.5 34.5l-12 14l106 137q3 -4 8 -10.5t23.5 -23t39 -29t52.5 -23t66 -10.5q64 0 111 39t47 100t-47 101.5t-115 40.5q-38 0 -74.5 -9.5t-54.5 -18.5l-17 -9l-104 39l45 459h502v-172h-344l-9 -97l-10 -51l4 -2 q43 16 105 16q138 0 226.5 -87.5t88.5 -211.5q0 -127 -93.5 -221t-246.5 -94z"/>
<glyph unicode="₆" d="M432 -342q-149 0 -250.5 112t-101.5 308q0 74 16 147t50 140.5t82 119t117.5 82.5t150.5 31q52 0 102 -12t74 -24l24 -11l-55 -166q-72 33 -135 33q-78 0 -132 -55t-73 -144h4q53 43 129 43q140 0 223.5 -83.5t83.5 -211.5q0 -132 -86 -220.5t-223 -88.5zM432 -164 q53 0 84 38.5t31 94.5q0 64 -38 108t-106 44q-50 0 -87 -25t-37 -57q0 -81 44 -142t109 -61z"/>
<glyph unicode="₇" d="M104 -322l359 650l49 78v4q-37 -4 -80 -4h-342v172h643v-134l-416 -766h-213z"/>
<glyph unicode="₈" d="M68 -61q0 39 14.5 76t38.5 66t44.5 48t41.5 35q-96 72 -96 184q0 118 88 184t211 66q78 0 146 -27.5t113.5 -86.5t45.5 -138q0 -49 -26 -103t-46.5 -78.5t-36.5 -39.5q127 -76 127 -203q0 -118 -97 -191t-230 -73q-87 0 -162 30t-125.5 96t-50.5 155zM539 -68 q0 16 -5.5 30.5t-18.5 27.5t-24 22.5t-34.5 22t-37 19t-44 20.5t-43.5 20q-76 -69 -76 -145q0 -57 43.5 -91t103.5 -34q53 0 94.5 30t41.5 78zM297 340q0 -27 12.5 -49t42.5 -41.5t52 -30t69 -31.5q59 77 59 146q0 45 -37 70.5t-85 25.5t-80.5 -23t-32.5 -67z"/>
<glyph unicode="₉" d="M70 289q0 132 85 220.5t222 88.5q150 0 252 -113.5t102 -308.5q0 -92 -26.5 -182t-76 -166t-131.5 -123t-184 -47q-52 0 -102 12t-74 24l-24 11l57 166q70 -33 133 -33q78 0 132 54t75 143h-4q-57 -43 -129 -43q-141 0 -224 84.5t-83 212.5zM262 287q0 -64 38.5 -109 t105.5 -45q51 0 87.5 25t36.5 57q0 80 -44.5 141.5t-108.5 61.5q-53 0 -84 -37.5t-31 -93.5z"/>
<glyph unicode="€" horiz-adv-x="1206" d="M63 512v156h115q-9 50 -2 127h-113v157h142q67 234 258 380.5t442 146.5q52 0 106.5 -6.5t83.5 -13.5l29 -7l-63 -240q-78 21 -162 21q-144 0 -253 -75.5t-159 -205.5h523l-31 -157h-528q-10 -56 2 -127h499l-30 -156h-424q49 -131 160 -209t251 -78q46 0 93 7.5t72 14.5 l24 7l49 -242q-105 -37 -242 -37q-259 0 -447.5 148t-252.5 389h-142z"/>
<glyph unicode="™" horiz-adv-x="1937" d="M893 547l72 907h182l186 -428l29 -86h4q12 51 27 86l188 428h180l70 -907h-195l-34 467q-1 16 -0.5 30t1.5 24l1 9h-5l-159 -364h-154l-160 364h-4l2 -63l-37 -467h-194zM340 547v735h-303v172h801v-172h-301v-735h-197z"/>
<glyph unicode="−" horiz-adv-x="1267" d="M94 483v203h1082v-203h-1082z"/>
<glyph unicode="∞" horiz-adv-x="1058" d="M530 322q-161 0 -277 116t-116 277q0 162 115.5 276.5t277.5 114.5q163 0 276.5 -114t113.5 -277q0 -162 -113.5 -277.5t-276.5 -115.5z"/>
<glyph unicode="≈" horiz-adv-x="1267" d="M213 659l-100 152q64 66 147.5 111t171.5 45q53 0 101 -15t84 -36t69.5 -42t72.5 -36t79 -15q58 0 117 32.5t102 80.5l102 -154q-157 -155 -321 -155q-65 0 -124.5 22.5t-96.5 49t-87 49t-98 22.5q-58 0 -116 -31.5t-103 -79.5zM213 240l-100 153q64 65 147.5 109.5 t171.5 44.5q53 0 101 -15t84 -36t69.5 -42t72.5 -36t79 -15q58 0 117 32.5t102 80.5l102 -154q-159 -153 -321 -153q-65 0 -124.5 22.5t-96.5 49t-87 49t-98 22.5q-57 0 -115 -32t-104 -80z"/>
<glyph unicode="≠" horiz-adv-x="1267" d="M242 129l100 145h-207v201h338l152 219h-490v201h623l155 229l125 -82l-102 -147h199v-201h-330l-152 -219h482v-201h-613l-153 -225z"/>
<glyph unicode="≤" horiz-adv-x="1267" d="M131 502v168l985 438v-227l-710 -293v-4l710 -293v-228zM135 -174h981v-201h-981v201z"/>
<glyph unicode="≥" horiz-adv-x="1267" d="M154 63v228l710 293v4l-710 293v227l985 -438v-168zM154 -174h983v-201h-983v201z"/>
<glyph unicode="◼" horiz-adv-x="1045" d="M0 1045h1045v-1045h-1045v1045z"/>
<glyph horiz-adv-x="686" d="M242 -113h215q14 -57 14 -110q0 -90 -53 -199h-193q41 108 41 178q0 66 -24 131z"/>
<glyph horiz-adv-x="2314" d="M344 -10v311l-258 148v569l258 145v310l543 290l274 -145l271 145l542 -290v-310l254 -145v-569l-254 -148v-311l-542 -289l-271 145l-274 -145zM426 61l487 -258l248 136l242 -136l487 258v285l234 131v510l-234 135v279l-487 258l-242 -131l-248 131l-487 -258v-279 l-233 -135v-510l233 -131v-285zM496 131v248l-203 123v461l203 118v252l440 234l225 -121l219 121l439 -234v-252l204 -118v-461l-204 -123v-248l-439 -233l-219 118l-225 -118zM887 186h203v392h397v172h-397v309h256q26 0 34.5 -11.5t8.5 -37.5v-60h182v176 q0 56 -23.5 80.5t-81.5 24.5h-690v-172h111v-873z"/>
<glyph horiz-adv-x="1196" d="M600 -25q-116 0 -207 38.5t-150 106t-97.5 164t-55 206t-16.5 239.5t16.5 239t55 205t97.5 162.5t150 105t207 38.5t207 -38.5t150.5 -105t98.5 -162.5t55.5 -205t16.5 -239t-16.5 -239.5t-55.5 -206t-98.5 -164t-150.5 -106t-207 -38.5zM600 217q256 0 256 512 q0 506 -256 506t-256 -506q0 -512 256 -512z"/>
<glyph horiz-adv-x="1196" d="M184 0v227h316v807l2 99h-4q-17 -35 -64 -82l-117 -111l-155 164l364 350h232v-1227h315v-227h-889z"/>
<glyph horiz-adv-x="1196" d="M133 0q-12 94 -12 129q0 106 37.5 198.5t97.5 158.5t132.5 124t145 107t132.5 95.5t97.5 101t37.5 112.5q0 93 -63.5 148t-157.5 55q-48 0 -92.5 -17.5t-74 -43t-52.5 -51t-33 -43.5l-11 -17l-196 131q5 12 16 31.5t53 69.5t92 88.5t136.5 70t183.5 31.5 q200 0 336.5 -116t136.5 -314q0 -95 -36 -177.5t-93.5 -142t-127 -112.5t-139.5 -98.5t-128 -89t-95 -95.5t-38 -107h680v-227h-965z"/>
<glyph horiz-adv-x="1196" d="M96 170l135 203q6 -6 16.5 -16t44.5 -35.5t70 -45t90.5 -35.5t108.5 -16q114 0 188 61.5t74 155.5q0 110 -88 168t-223 58h-100l-60 135l266 315q26 30 52 58t40 40l13 13v4q-43 -6 -129 -6h-434v227h889v-166l-357 -411q77 -11 147 -43.5t127 -84t90.5 -128.5t33.5 -168 q0 -94 -35 -179.5t-99 -152.5t-162.5 -106.5t-215.5 -39.5q-87 0 -168.5 20t-136 48.5t-96.5 57.5t-61 49z"/>
<glyph horiz-adv-x="1196" d="M39 375v162l627 917h313v-860h188v-219h-188v-375h-260v375h-680zM317 594h402v450q0 32 2.5 70t4.5 60l3 22h-4q-33 -78 -72 -133l-336 -465v-4z"/>
<glyph horiz-adv-x="1196" d="M98 172l135 199q5 -6 14 -16t40.5 -35t65 -44t85.5 -35t105 -16q111 0 192.5 68.5t81.5 179.5q0 112 -83.5 182t-209.5 70q-57 0 -113.5 -15.5t-84.5 -30.5l-27 -15l-145 53l67 737h764v-227h-536l-23 -240l-10 -67h4q67 32 155 32q234 0 373 -137t139 -340 q0 -216 -148.5 -358t-375.5 -142q-63 0 -122.5 11t-104.5 28t-85 38t-67 42.5t-47 38.5t-29 28z"/>
<glyph horiz-adv-x="1196" d="M645 -25q-114 0 -215.5 47t-178.5 133t-122 218.5t-45 292.5q0 116 26 230.5t80.5 220t132 186t189 128.5t242.5 48q82 0 156 -15.5t108 -31.5l33 -15l-78 -227q-92 45 -205 45q-83 0 -151.5 -32.5t-114.5 -88.5t-76.5 -123.5t-44.5 -144.5h4q38 44 116 73t156 29 q139 0 247 -67t164 -176.5t56 -241.5q0 -101 -34.5 -190t-96 -155t-152 -104.5t-196.5 -38.5zM645 217q99 0 158 70t59 176q0 116 -70 192t-196 76q-99 0 -168.5 -45t-69.5 -113q0 -90 39.5 -172t106 -133t141.5 -51z"/>
<glyph horiz-adv-x="1196" d="M203 0l545 1094q20 40 42 73.5t34 46.5l12 13v4q-29 -4 -101 -4h-620v227h999v-184l-637 -1270h-274z"/>
<glyph horiz-adv-x="1196" d="M76 422q0 72 26.5 139.5t67.5 116t70 75t55 44.5q-150 114 -150 284q0 77 29 147t84.5 127t147 90.5t206.5 33.5q207 0 339 -109t132 -295q0 -51 -16.5 -106t-35 -92.5t-47.5 -79.5t-39 -53.5t-23 -26.5q186 -119 186 -309q0 -85 -35 -162.5t-98.5 -138t-162 -96.5 t-216.5 -36q-232 0 -376 128t-144 319zM840 420q0 31 -16 59t-36.5 48t-62.5 44t-71.5 38t-86.5 39.5t-86 39.5q-135 -112 -135 -246q0 -101 74 -167t176 -66q104 0 174 58t70 153zM406 1075q0 -36 16 -67.5t40 -54t65.5 -46.5t77 -40.5t89.5 -39.5q22 -9 33 -14 q17 19 35.5 46t40.5 85t22 115q0 84 -59.5 134t-157.5 50q-96 0 -149 -47t-53 -121z"/>
<glyph horiz-adv-x="1196" d="M446 -25q-82 0 -156 15.5t-107 31.5l-33 15l77 227q10 -5 28.5 -13t72 -21t102.5 -13q83 0 151.5 32.5t115.5 88.5t77.5 123.5t44.5 144.5h-4q-38 -44 -116.5 -73t-157.5 -29q-139 0 -246.5 67.5t-163 177.5t-55.5 242q0 206 133.5 347t345.5 141q114 0 215.5 -47 t178.5 -133t122 -218.5t45 -292.5q0 -96 -18.5 -192t-54.5 -187.5t-93 -169.5t-129.5 -137.5t-168.5 -93t-206 -33.5zM604 721q99 0 168.5 46t69.5 112q0 138 -87 247t-200 109q-99 0 -159 -69.5t-60 -174.5q0 -116 70.5 -193t197.5 -77z"/>
<glyph horiz-adv-x="1005" d="M195 598v227h616v-227h-616z"/>
<glyph horiz-adv-x="714" d="M635 -133h-221q-116 190 -180 420t-64 477q0 430 244 815h221q-232 -385 -232 -817q0 -469 232 -895z"/>
<glyph horiz-adv-x="714" d="M301 -133h-221q231 427 231 895q0 431 -231 817h221q244 -385 244 -815q0 -247 -64 -477t-180 -420z"/>
<glyph horiz-adv-x="759" d="M227 -133v1712h404v-188h-182v-1336h182v-188h-404z"/>
<glyph horiz-adv-x="759" d="M532 1579v-1712h-403v188h180v1336h-180v188h403z"/>
<glyph horiz-adv-x="854" d="M303 207v199q0 57 -18 100t-43.5 63.5t-51 32.5t-43.5 14l-18 2v228q7 0 19 2t42 14.5t52.5 33.5t41.5 64.5t19 102.5v176q0 89 27.5 155t66 101.5t92 57t94 27t83.5 5.5l63 -2v-192q-16 2 -37 2q-26 0 -50.5 -6t-53.5 -22.5t-46.5 -54t-17.5 -91.5v-224 q0 -57 -17.5 -105t-42 -75.5t-49 -46.5t-41.5 -26l-18 -7v-4q7 -2 18 -6.5t40 -24t51.5 -45.5t40.5 -74.5t18 -107.5v-246q0 -55 17.5 -92.5t47 -54t53.5 -22t50 -5.5l37 2v-192q-27 -4 -63 -4q-43 0 -83.5 5.5t-94 27t-92 57t-66 102.5t-27.5 156z"/>
<glyph horiz-adv-x="854" d="M125 55q16 -2 37 -2q26 0 50 5.5t52.5 22t46 54t17.5 92.5v246q0 59 17.5 107.5t42.5 75t50 45t42 24.5l18 6v4q-7 2 -18.5 7t-40.5 26t-51.5 47.5t-41 74.5t-18.5 105v224q0 54 -17.5 91.5t-46 54t-52.5 22.5t-50 6l-37 -2v192q27 2 63 2q43 0 83.5 -5.5t94 -27t92 -57 t66 -101.5t27.5 -155v-176q0 -59 18 -102.5t43.5 -64.5t51 -33.5t43.5 -14.5l18 -2v-228q-7 0 -19 -2t-42 -14.5t-52.5 -32.5t-41.5 -63t-19 -100v-199q0 -89 -27.5 -156t-66 -102.5t-92 -57t-94 -27t-83.5 -5.5l-63 4v192z"/>
<glyph horiz-adv-x="1736" d="M135 723q0 157 59.5 298t162 243t245.5 161.5t303 59.5q151 0 263 -35.5t176 -99t94 -140.5t30 -170v-512h150v-186h-567q-199 0 -320 113t-121 268q0 154 119.5 264.5t321.5 110.5h174q-3 79 -90.5 129.5t-221.5 50.5q-145 0 -266 -78t-188.5 -205t-67.5 -272 q0 -150 66.5 -274.5t194.5 -199.5t294 -75v-203q-179 0 -331.5 58.5t-257 159.5t-163.5 239.5t-59 294.5zM868 729q0 -85 55.5 -143t143.5 -58h158v402h-154q-90 0 -146.5 -58.5t-56.5 -142.5z"/>
<glyph horiz-adv-x="1277" d="M907 281l-336 419l336 422h248l-336 -422l336 -419h-248zM449 281l-336 419l336 422h247l-336 -422l336 -419h-247z"/>
<glyph horiz-adv-x="1280" d="M584 281l336 419l-336 422h247l336 -422l-336 -419h-247zM123 281l336 419l-336 422h248l336 -422l-336 -419h-248z"/>
<glyph horiz-adv-x="819" d="M449 281l-336 419l336 422h247l-336 -422l336 -419h-247z"/>
<glyph horiz-adv-x="819" d="M123 281l336 419l-336 422h248l336 -422l-336 -419h-248z"/>
<glyph horiz-adv-x="1521" d="M195 606v203h1132v-203h-1132z"/>
<glyph horiz-adv-x="1931" d="M195 606v203h1542v-203h-1542z"/>
<glyph horiz-adv-x="632" d="M190 578v260h252v-260h-252z"/>
<glyph horiz-adv-x="1071" d="M489 1212v242h250v-242h-250zM131 360q0 68 19.5 126.5t51.5 100.5t70 79t76 70t70 65t51.5 72t19.5 85v76h250v-94q0 -60 -18.5 -112.5t-48 -91t-65.5 -73.5t-72 -66t-65.5 -62t-48 -69.5t-18.5 -80.5q0 -72 57.5 -122t141.5 -50q52 0 106 22t82 44l29 22l146 -180 q-6 -6 -17 -16t-49 -35t-79.5 -44t-107 -35t-132.5 -16q-118 0 -219 44.5t-165.5 134t-64.5 206.5z"/>
<glyph horiz-adv-x="731" d="M240 1212v242h249v-242h-249zM229 0l23 1034h227l21 -1034h-271z"/>
<glyph horiz-adv-x="933" d="M467 383q-141 0 -241.5 100.5t-100.5 241.5q0 142 100.5 242t241.5 100q143 0 242.5 -99.5t99.5 -242.5q0 -141 -100 -241.5t-242 -100.5z"/>
<glyph horiz-adv-x="1200" d="M94 561q0 114 30.5 217t90 188t159 135t226.5 50q103 0 188 -33.5t142.5 -90t97.5 -133t58 -160.5t18 -175t-18 -174.5t-58 -158.5t-97.5 -130.5t-142.5 -88t-188 -32.5q-128 0 -227.5 50t-159 134t-89.5 186t-30 216zM356 563q0 -71 14 -134.5t42 -116.5t76.5 -84 t111.5 -31t111.5 31t76.5 83.5t42 115.5t14 134t-14 135t-42 117.5t-76.5 85t-111.5 31.5q-84 0 -141 -55.5t-80 -135t-23 -176.5z"/>
<glyph horiz-adv-x="1009" d="M125 0v221h303v510l2 133h-4q-31 -33 -78 -61l-158 -92l-118 178l383 237h225v-905h278v-221h-833z"/>
<glyph horiz-adv-x="1107" d="M106 0v176q99 64 171 113.5t158.5 116.5t141 122t91.5 116.5t37 113.5q0 83 -57 124.5t-140 41.5q-45 0 -92 -15.5t-81.5 -37.5t-63 -44t-43.5 -37l-15 -16l-137 170q7 8 20.5 22t59 50t96 63t129.5 49.5t162 22.5q179 0 302.5 -98t123.5 -260q0 -72 -24.5 -139 t-65.5 -123t-105 -112.5t-131 -102.5t-156 -99v-4q43 8 129 8h406v-221h-916z"/>
<glyph horiz-adv-x="1073" d="M20 -82l123 182q5 -6 15 -15.5t43 -33.5t67.5 -43t87.5 -34t105 -15q114 0 188 58t74 153q0 46 -18.5 84t-49 63t-70.5 42.5t-82 25.5t-85 8h-113l-57 127l244 283q24 28 50 54t40 38l14 12v4q-45 -8 -129 -8h-369v223h840v-151l-360 -395q61 -8 118.5 -27t110.5 -52.5 t92 -77.5t62.5 -105t23.5 -132q0 -92 -35.5 -173.5t-100.5 -142.5t-163.5 -96.5t-216.5 -35.5q-82 0 -158.5 18.5t-127 45t-89 53t-56.5 45.5z"/>
<glyph horiz-adv-x="1228" d="M49 59v162l592 905h324v-845h194v-222h-194v-297h-260v297h-656zM326 281h379v444q0 32 2.5 70t4.5 60l3 22h-4q-33 -82 -72 -138z"/>
<glyph horiz-adv-x="1097" d="M49 -74l123 180q5 -6 14 -15t40 -33t64.5 -42.5t84 -33.5t102.5 -15q71 0 133 24.5t105 79.5t43 130q0 113 -82 177t-201 64q-59 0 -117 -14t-86 -28l-28 -13l-140 51l68 688h737v-223h-516l-22 -221l-11 -64h5q69 29 157 29q225 0 361.5 -121.5t136.5 -312.5 q0 -212 -147 -339.5t-375 -127.5q-83 0 -159.5 18.5t-127 45t-89 53t-56.5 45.5z"/>
<glyph horiz-adv-x="1198" d="M106 610q0 92 17.5 184t52 179.5t90 162.5t126 131.5t165.5 89t203 32.5q82 0 156 -14.5t108 -28.5l33 -15l-76 -207q-94 43 -205 43q-80 0 -148 -32t-114.5 -87t-76.5 -120.5t-44 -139.5h4q38 45 116 73t159 28q103 0 190 -36t145 -98t90.5 -144.5t32.5 -174.5 q0 -193 -131.5 -327t-339.5 -134q-114 0 -214 42t-176 120.5t-119.5 200.5t-43.5 272zM373 535q0 -83 36 -160.5t102.5 -127.5t145.5 -50q99 0 156 65.5t57 171.5q0 108 -68.5 179t-191.5 71q-97 0 -167 -43.5t-70 -105.5z"/>
<glyph horiz-adv-x="1077" d="M147 -238l519 1020q19 38 38 69.5t28 43.5l9 12v4q-22 -6 -94 -6h-592v221h975v-174l-608 -1190h-275z"/>
<glyph horiz-adv-x="1200" d="M92 395q0 51 17 101.5t40.5 87t55.5 71.5t54.5 54t45.5 36q-147 109 -147 269q0 73 28 138.5t82 118.5t142.5 84t199.5 31q200 0 330.5 -102t130.5 -274q0 -154 -149 -340q180 -113 180 -287q0 -80 -35 -153t-97.5 -130t-159.5 -91t-212 -34q-225 0 -365.5 121 t-140.5 299zM840 391q0 25 -9 47t-30.5 42t-41.5 35t-58 34t-63 30.5t-73 32t-73 31.5q-54 -38 -98 -95.5t-44 -131.5q0 -96 73.5 -158.5t174.5 -62.5q102 0 172 54.5t70 141.5zM408 1010q0 -35 17 -65.5t40 -52t67.5 -45t77.5 -37.5t92 -37q15 -6 23 -9q94 110 94 229 q0 80 -58 127t-153 47q-94 0 -147 -44.5t-53 -112.5z"/>
<glyph horiz-adv-x="1204" d="M221 2q94 -43 205 -43q80 0 148 32.5t114.5 87t76.5 119.5t44 138h-4q-37 -44 -115.5 -71t-159.5 -27q-206 0 -332 130t-126 320q0 195 131 329t340 134q115 0 214.5 -42t175.5 -120.5t119.5 -201t43.5 -273.5q0 -111 -24.5 -220t-78 -209.5t-128.5 -177.5t-184.5 -123 t-238.5 -46q-82 0 -156.5 14t-108.5 28l-34 15zM592 442q98 0 166.5 42.5t68.5 105.5q0 131 -81.5 235.5t-200.5 104.5q-98 0 -156.5 -66t-58.5 -172q0 -107 69.5 -178.5t192.5 -71.5z"/>
<glyph horiz-adv-x="1196" d="M94 561q0 114 30.5 217t90 188t159 135t226.5 50q103 0 188 -33.5t142.5 -90t97.5 -133t58 -160.5t18 -175t-18 -174.5t-58 -158.5t-97.5 -130.5t-142.5 -88t-188 -32.5q-128 0 -227.5 50t-159 134t-89.5 186t-30 216zM356 563q0 -71 14 -134.5t42 -116.5t76.5 -84 t111.5 -31t111.5 31t76.5 83.5t42 115.5t14 134t-14 135t-42 117.5t-76.5 85t-111.5 31.5q-84 0 -141 -55.5t-80 -135t-23 -176.5z"/>
<glyph horiz-adv-x="1196" d="M231 0v221h304v510l2 133h-5q-30 -33 -77 -61l-158 -92l-119 178l383 237h225v-905h279v-221h-834z"/>
<glyph horiz-adv-x="1196" d="M160 0v176q99 64 170.5 113.5t158 116.5t140.5 122t91.5 116.5t37.5 113.5q0 84 -56.5 125t-140.5 41q-45 0 -92 -15.5t-81.5 -37.5t-63 -44t-43.5 -37l-15 -16l-137 170q7 8 20.5 22t59 50t96 63t129.5 49.5t162 22.5q179 0 302.5 -98t123.5 -260q0 -72 -24.5 -139 t-65.5 -123t-105 -112.5t-130.5 -102.5t-155.5 -99v-4q43 8 129 8h405v-221h-915z"/>
<glyph horiz-adv-x="1196" d="M102 -80l123 182q5 -6 15 -15.5t42.5 -33.5t67.5 -43t87 -34t104 -15q114 0 188 58t74 153q0 57 -27.5 101t-73 69t-97.5 38t-107 13h-111l-57 127l241 283q25 28 51 54t40 38l14 12v4q-45 -8 -129 -8h-367v223h838v-151l-361 -395q78 -10 148.5 -38.5t129.5 -75.5 t94.5 -119t35.5 -159q0 -190 -140.5 -319t-375.5 -129q-81 0 -157.5 18.5t-126.5 45t-88.5 53t-56.5 45.5z"/>
<glyph horiz-adv-x="1196" d="M49 59v162l592 905h324v-845h194v-222h-194v-297h-260v297h-656zM326 281h379v444q0 32 2.5 70t4.5 60l3 22h-4q-33 -82 -72 -138z"/>
<glyph horiz-adv-x="1196" d="M111 -74l122 180q5 -6 14 -15t40 -33t64.5 -42.5t84.5 -33.5t103 -15q111 0 195.5 61.5t84.5 172.5q0 113 -82 177t-200 64q-60 0 -118 -14t-86 -28l-28 -13l-139 51l67 688h738v-223h-516l-23 -221l-10 -64h4q70 29 158 29q225 0 361 -121.5t136 -312.5 q0 -212 -147 -339.5t-375 -127.5q-83 0 -159.5 18.5t-126.5 45t-88.5 53t-56.5 45.5z"/>
<glyph horiz-adv-x="1196" d="M88 610q0 111 24.5 220.5t77.5 210.5t128 178.5t184.5 123.5t238.5 46q82 0 156.5 -14.5t107.5 -28.5l33 -15l-75 -207q-95 43 -205 43q-80 0 -148 -32t-114.5 -87t-76.5 -120.5t-44 -139.5h4q37 45 115.5 73t158.5 28q206 0 332.5 -131t126.5 -322q0 -193 -131.5 -327 t-339.5 -134q-114 0 -214 42t-176 120.5t-119.5 200.5t-43.5 272zM354 535q0 -130 82.5 -234t202.5 -104q98 0 155.5 65.5t57.5 171.5q0 108 -68.5 179t-191.5 71q-97 0 -167.5 -43.5t-70.5 -105.5z"/>
<glyph horiz-adv-x="1196" d="M205 -238l518 1020q19 38 38 69.5t29 43.5l9 12v4q-23 -6 -94 -6h-592v221h974v-174l-608 -1190h-274z"/>
<glyph horiz-adv-x="1196" d="M88 395q0 51 17 101.5t40.5 87t55.5 71.5t54.5 54t45.5 36q-147 109 -147 269q0 73 28 138.5t82 118.5t142.5 84t199.5 31q200 0 330.5 -102t130.5 -274q0 -154 -149 -340q180 -113 180 -287q0 -80 -35 -153t-97.5 -130t-159.5 -91t-212 -34q-225 0 -365.5 121 t-140.5 299zM836 391q0 25 -9 47t-30.5 42t-41.5 35t-58 34t-63 30t-73.5 32t-73.5 32q-141 -101 -141 -227q0 -96 73.5 -158.5t174.5 -62.5q102 0 172 54.5t70 141.5zM403 1010q0 -91 117 -158q48 -28 201 -88q94 115 94 229q0 80 -58 127t-153 47q-94 0 -147.5 -44.5 t-53.5 -112.5z"/>
<glyph horiz-adv-x="1196" d="M236 2q94 -43 204 -43q81 0 149 32.5t114 87t76 119.5t44 138h-4q-37 -44 -115.5 -71t-158.5 -27q-138 0 -243.5 61.5t-160.5 163t-55 225.5q0 195 131 329t340 134q115 0 214.5 -42t175.5 -120.5t119.5 -201t43.5 -273.5q0 -111 -24.5 -220t-78 -209.5t-128.5 -177.5 t-184 -123t-238 -46q-82 0 -157 14t-108 28l-34 15zM606 442q98 0 167 43t69 105q0 131 -82 235.5t-201 104.5q-98 0 -156.5 -66t-58.5 -172q0 -107 69.5 -178.5t192.5 -71.5z"/>
<glyph horiz-adv-x="1089" d="M88 172l127 193q6 -6 16.5 -17t44.5 -38t69.5 -48t88 -38t103.5 -17q85 0 135.5 33t50.5 94q0 36 -33 66t-85 53.5t-115.5 48t-127 56.5t-115.5 72t-85 101t-33 137q0 137 95.5 226t250.5 112v183h174v-181q59 -6 113.5 -21t90 -32.5t62.5 -34.5t39 -28l13 -11l-101 -207 q-5 4 -13.5 11.5t-37.5 26.5t-59.5 33t-76.5 26t-91 12q-189 0 -189 -127q0 -34 33 -62.5t85 -50.5t115.5 -45.5t127 -55t115.5 -71t85 -102t33 -139.5q0 -132 -95.5 -228t-256.5 -118v-191h-174v189q-68 8 -132.5 30.5t-107 49t-75.5 51.5t-48 42z"/>
<glyph horiz-adv-x="1132" d="M92 612q0 186 114 324t306 176v172h182v-162q62 -6 120 -24t97 -40.5t69 -44t44 -35.5l14 -15l-118 -191q-4 5 -12 13.5t-34.5 29.5t-55 37t-72 29.5t-87.5 13.5q-139 0 -223 -81t-84 -198q0 -120 83.5 -202t223.5 -82q44 0 87 12.5t73 30t53.5 35.5t35.5 30l12 13 l118 -189q-5 -6 -15 -15.5t-43 -35t-70 -46t-96 -40t-120 -25.5v-159h-182v170q-192 36 -306 174.5t-114 324.5z"/>
<glyph horiz-adv-x="1271" d="M106 0v221h121v264h-90v172h90v144q0 178 138 295.5t344 117.5q63 0 124.5 -12t104.5 -29t76.5 -34t49.5 -29l17 -12l-116 -191q-13 9 -36.5 21.5t-89.5 33.5t-124 21q-97 0 -161.5 -53.5t-64.5 -132.5v-140h414v-172h-414v-264h637v-221h-1020z"/>
<glyph horiz-adv-x="1310" d="M186 588v155h168l-264 447h299l174 -324q21 -38 43 -88t34 -81l11 -31h4q41 112 88 200l172 324h299l-264 -447h178v-155h-270l-74 -129v-8h344v-156h-344v-295h-264v295h-334v156h334v8l-76 129h-258z"/>
<glyph horiz-adv-x="1169" d="M41 -25q90 -12 137 -12q34 0 64.5 7t65.5 25t58.5 58t28.5 99l39 440h-153v207h172l18 202q7 82 33.5 147t66.5 106t84.5 69t96.5 41.5t93.5 19t84.5 5.5q32 0 76 -4.5t72 -8.5l28 -4v-221q-111 14 -162 14q-26 0 -50 -3.5t-54 -15t-52.5 -31t-40 -55.5t-22.5 -83 l-16 -178h223v-207h-242l-39 -465q-6 -71 -27.5 -129.5t-50.5 -98t-69 -69t-78.5 -46.5t-83 -27.5t-79 -13.5t-70.5 -3q-30 0 -68 3.5t-61 6.5l-23 4v221z"/>
<glyph horiz-adv-x="1226" d="M100 393v144h131q-4 40 -4 65q0 31 2 47h-129v144h156q28 88 80.5 162.5t129.5 133.5t185 92t236 33q51 0 101.5 -6t75.5 -12l26 -6l-58 -209q-69 20 -149 20q-129 0 -219 -56.5t-136 -151.5h465l-30 -144h-474q-2 -16 -2 -45q0 -30 5 -67h454l-28 -144h-379 q50 -92 139 -146t213 -54q44 0 88.5 7t66.5 14l23 7l43 -211q-96 -35 -225 -35q-241 0 -403 116.5t-224 301.5h-160z"/>
<glyph d="M406 535q-334 0 -334 471q0 103 17 184.5t55 147.5t104 101.5t158 35.5q331 0 331 -469q0 -471 -331 -471zM406 713q135 0 135 293q0 288 -135 288q-138 0 -138 -288q0 -293 138 -293z"/>
<glyph d="M137 555v170h189v424l4 57h-4q-9 -18 -31 -39l-64 -59l-114 123l231 223h172v-729h187v-170h-570z"/>
<glyph d="M98 555q-8 58 -8 84q0 72 23.5 132t61 101t82.5 75.5t90 62t82.5 53.5t61 57.5t23.5 67.5q0 47 -36 76.5t-91 29.5q-41 0 -81.5 -23.5t-60.5 -46.5l-20 -24l-127 113q4 7 11.5 17.5t35.5 38.5t60 49.5t84.5 39t109.5 17.5q129 0 220.5 -75.5t91.5 -203.5 q0 -60 -21.5 -110.5t-56 -85.5t-76.5 -65t-85 -54.5t-79 -47.5t-60.5 -50.5t-27.5 -57.5h418v-170h-625z"/>
<glyph d="M379 535q-58 0 -110.5 14t-86.5 34.5t-59.5 40.5t-36.5 34l-12 14l102 137q3 -4 8.5 -10.5t25 -23t41 -29t55 -23t69.5 -10.5q61 0 104 37t43 92t-47 85.5t-113 30.5h-71l-41 93l162 184q7 9 19.5 21t20.5 20l9 8v4q-41 -6 -72 -6h-264v172h573v-125l-202 -229 q101 -20 162 -87t61 -173q0 -124 -94 -214.5t-246 -90.5z"/>
<glyph d="M459 555v203h-418v131l387 565h221v-528h119v-168h-119v-203h-190zM240 926h219v225l6 113h-4q-25 -56 -53 -97l-168 -237v-4z"/>
<glyph d="M391 535q-56 0 -108.5 14t-87.5 34.5t-61.5 40.5t-39.5 34l-12 14l106 137q3 -4 8 -10.5t23.5 -23t39 -29t52.5 -23t66 -10.5q64 0 111 39t47 100t-47 101t-115 40q-38 0 -74.5 -9.5t-54.5 -18.5l-17 -9l-104 39l45 459h502v-172h-344l-9 -96l-10 -51l4 -2q43 16 105 16 q138 0 226.5 -87.5t88.5 -211.5q0 -128 -93.5 -221.5t-246.5 -93.5z"/>
<glyph d="M432 535q-149 0 -250.5 112t-101.5 307q0 74 16 147t50 141t82 119.5t117.5 82.5t150.5 31q52 0 102 -12t74 -24l24 -12l-55 -165q-72 32 -135 32q-78 0 -132 -54.5t-73 -143.5h4q55 43 129 43q140 0 223.5 -83.5t83.5 -211.5q0 -132 -86 -220.5t-223 -88.5zM432 713 q53 0 84 38t31 95q0 64 -38 107.5t-106 43.5q-50 0 -87 -25t-37 -57q0 -80 44.5 -141t108.5 -61z"/>
<glyph d="M104 555l359 649l49 78v4q-37 -4 -80 -4h-342v172h643v-133l-416 -766h-213z"/>
<glyph d="M68 815q0 51 27 100.5t54.5 76.5t57.5 48q-96 72 -96 185q0 118 88 184t211 66q78 0 146 -27.5t113.5 -86.5t45.5 -138q0 -50 -26.5 -104.5t-45.5 -77t-37 -40.5q127 -76 127 -202q0 -118 -97 -191t-230 -73q-87 0 -162 30t-125.5 95.5t-50.5 154.5zM539 809 q0 16 -5.5 30.5t-18.5 27.5t-24 22.5t-34.5 22t-37 19t-44 20.5t-43.5 20q-76 -71 -76 -146q0 -57 43.5 -91t103.5 -34q53 0 94.5 30t41.5 79zM297 1217q0 -27 12.5 -49t42.5 -41.5t52 -30t69 -31.5q59 74 59 145q0 45 -37 71t-85 26t-80.5 -23t-32.5 -67z"/>
<glyph d="M70 1165q0 132 85 221t222 89q150 0 252 -113.5t102 -308.5q0 -73 -16 -146t-50 -140t-82 -118.5t-118 -82.5t-152 -31q-52 0 -102 11.5t-74 23.5l-24 12l57 166q70 -33 133 -33q78 0 132 53.5t75 142.5h-4q-59 -43 -129 -43q-141 0 -224 84.5t-83 212.5zM262 1163 q0 -63 38.5 -108t105.5 -45q51 0 87.5 25t36.5 57q0 80 -44.5 141t-108.5 61q-54 0 -84.5 -37.5t-30.5 -93.5z"/>
<glyph d="M406 -20q-334 0 -334 471q0 103 17 184.5t55 147.5t104 101.5t158 35.5q331 0 331 -469q0 -471 -331 -471zM406 158q135 0 135 293q0 288 -135 288q-138 0 -138 -288q0 -293 138 -293z"/>
<glyph d="M137 0v170h189v424l4 57h-4q-9 -18 -31 -39l-64 -59l-114 123l231 223h172v-729h187v-170h-570z"/>
<glyph d="M98 0q-8 58 -8 84q0 72 23.5 132t61 101t82.5 75.5t90 62t82.5 53.5t61 57.5t23.5 67.5q0 47 -36 76.5t-91 29.5q-41 0 -81.5 -23.5t-60.5 -47.5l-20 -23l-127 113q4 7 11.5 17.5t35.5 38.5t60 49.5t84.5 39t109.5 17.5q129 0 220.5 -75.5t91.5 -203.5 q0 -60 -21.5 -110.5t-56 -85.5t-76.5 -65t-85 -54.5t-79 -47.5t-60.5 -50.5t-27.5 -57.5h418v-170h-625z"/>
<glyph d="M379 -20q-58 0 -110.5 14t-86.5 34.5t-59.5 40.5t-36.5 34l-12 14l102 137q3 -4 8.5 -10.5t25 -23t41 -29t55 -23t69.5 -10.5q61 0 104 37t43 92t-47 85.5t-113 30.5h-71l-41 93l162 184q7 9 19.5 21t20.5 20l9 8v4q-41 -6 -72 -6h-264v172h573v-125l-202 -229 q101 -20 162 -87t61 -173q0 -124 -94 -214.5t-246 -90.5z"/>
<glyph d="M459 0v203h-418v131l387 565h221v-528h119v-168h-119v-203h-190zM240 371h219v225l6 113h-4q-25 -56 -53 -97l-168 -237v-4z"/>
<glyph d="M391 -20q-56 0 -108.5 14t-87.5 34.5t-61.5 40.5t-39.5 34l-12 14l106 137q3 -4 8 -10.5t23.5 -23t39 -29t52.5 -23t66 -10.5q64 0 111 39t47 100t-47 101t-115 40q-38 0 -74.5 -9t-54.5 -19l-17 -9l-104 39l45 459h502v-172h-344l-9 -96l-10 -51l4 -2q43 16 105 16 q138 0 226.5 -87.5t88.5 -211.5q0 -128 -93.5 -221.5t-246.5 -93.5z"/>
<glyph d="M432 -20q-149 0 -250.5 112t-101.5 307q0 74 16 147t50 141t82 119.5t117.5 82.5t150.5 31q52 0 102 -12t74 -24l24 -12l-55 -165q-72 32 -135 32q-78 0 -132 -54.5t-73 -143.5h4q55 43 129 43q140 0 223.5 -83.5t83.5 -211.5q0 -132 -86 -220.5t-223 -88.5zM432 158 q53 0 84 38t31 95q0 64 -38 107.5t-106 43.5q-50 0 -87 -25t-37 -57q0 -80 44.5 -141t108.5 -61z"/>
<glyph d="M104 0l359 649l49 78v4q-37 -4 -80 -4h-342v172h643v-133l-416 -766h-213z"/>
<glyph d="M68 260q0 51 27 100.5t54.5 76.5t57.5 48q-96 72 -96 185q0 118 88 184t211 66q78 0 146 -27.5t113.5 -86.5t45.5 -138q0 -50 -26.5 -104.5t-45.5 -77t-37 -40.5q127 -76 127 -202q0 -118 -97 -191t-230 -73q-87 0 -162 30t-125.5 95.5t-50.5 154.5zM539 254 q0 16 -5.5 30.5t-18.5 27.5t-24 22.5t-34.5 22t-37 19t-44 20.5t-43.5 20q-76 -71 -76 -146q0 -57 43.5 -91t103.5 -34q53 0 94.5 30t41.5 79zM297 662q0 -27 12.5 -49t42.5 -41.5t52 -30t69 -31.5q59 74 59 145q0 45 -37 71t-85 26t-80.5 -23t-32.5 -67z"/>
<glyph d="M70 610q0 132 85 221t222 89q150 0 252 -113.5t102 -308.5q0 -73 -16 -146t-50 -140t-82 -118.5t-118 -82.5t-152 -31q-52 0 -102 11.5t-74 23.5l-24 12l57 166q70 -33 133 -33q78 0 132 53.5t75 142.5h-4q-59 -43 -129 -43q-141 0 -224 84.5t-83 212.5zM262 608 q0 -63 38.5 -108t105.5 -45q51 0 87.5 25t36.5 57q0 80 -44.5 141t-108.5 61q-54 0 -84.5 -37.5t-30.5 -93.5z"/>
</font>
</defs>
</svg>
