<?xml version="1.0" standalone="no"?>
<!DOCTYPE svg PUBLIC "-//W3C//DTD SVG 1.1//EN" "http://www.w3.org/Graphics/SVG/1.1/DTD/svg11.dtd">
<svg xmlns="http://www.w3.org/2000/svg">
<metadata>Generated by Fontastic.me</metadata>
<defs>
<font id="bs-icons-v10" horiz-adv-x="512">
<font-face font-family="bs-icons-v10" units-per-em="512" ascent="480" descent="-32"/>
<missing-glyph horiz-adv-x="512" />

<glyph glyph-name="facebook" unicode="&#45056;" d="M292 353l74 0-9-81-65 0 0-235-97 0 0 235-49 0 0 81 49 0 0 49c0 35 8 61 24 79 17 18 44 26 81 26l65 0 0-81-40 0c-8 0-14 0-18-2-5-1-8-3-10-6-2-4-3-7-4-10 0-3-1-8-1-14z"/>
<glyph glyph-name="twitter" unicode="&#45057;" d="M481 395c-13-18-28-34-46-47 0-3 0-7 0-12 0-25-3-50-11-74-7-25-18-49-33-71-14-23-32-43-52-61-21-17-45-31-74-41-29-11-60-16-92-16-52 0-99 14-142 42 7-1 14-2 22-2 43 0 81 14 115 40-20 0-38 6-54 18-16 12-27 27-33 46 7-1 13-2 18-2 8 0 16 1 24 4-21 4-39 15-53 31-14 17-21 37-21 59l0 1c13-7 27-11 42-11-13 8-23 19-30 32-8 14-11 29-11 44 0 17 4 33 12 47 23-28 51-51 84-68 33-17 69-27 107-29-2 8-3 15-3 22 0 25 9 47 27 65 18 18 40 27 66 27 26 0 49-10 67-29 21 4 40 11 59 22-7-22-21-39-41-51 18 2 35 7 53 14z"/>
<glyph glyph-name="dribbble" unicode="&#45058;" d="M245 323c-11 18-22 37-34 55-12 19-22 33-29 43-7 10-11 16-12 17-28-13-52-32-71-57-20-25-33-52-40-83 63 0 124 8 186 25m25-68c3 1 5 2 8 2-4 10-9 21-17 35-62-19-131-29-206-29 0 0 0-7 0-7 0-51 17-96 51-134 2 3 4 6 7 11 3 4 10 13 20 25 10 13 21 25 33 36 11 10 27 22 45 33 19 12 39 21 59 28m-138-157c-1 0-1 1-2 1 0 0-2 2-2 2 0 0 4-3 4-3m76 354l0 0m181-44c-39 33-83 50-133 50-16 0-32-2-47-6 28-37 53-76 75-117 47 18 82 41 104 72 0 0 1 1 1 1m-133-388c-65 0-120 24-166 70-46 46-70 101-70 166 0 65 24 120 70 166 46 46 101 70 166 70 65 0 120-24 166-70 46-46 70-101 70-166 0-65-24-120-70-166-46-46-101-70-166-70m35 203c-74-25-126-66-158-124 0 0-1-1-1-1 38-28 79-43 124-43 27 0 53 6 79 17-8 47-23 98-43 152 0 0-1-1-1-1m8 81c4-8 9-18 13-29 1 0 2-2 3-4 1-3 2-4 2-6 23 3 45 4 66 2 22-1 39-3 52-5 13-2 20-3 22-4 0 47-15 89-45 126 0 0-4-5-4-5-3-4-8-8-14-14-6-6-13-12-21-18-8-7-19-14-32-22-13-8-27-15-42-21m31-71c17-50 30-98 39-143 47 32 76 76 86 134-3 2-10 3-20 6-11 2-26 4-45 6-20 2-40 1-60-3"/>
<glyph glyph-name="vimeo" unicode="&#45059;" d="M484 362c-11-63-40-123-87-179-48-57-90-97-126-122-14-9-28-12-41-8-14 3-25 10-34 19-9 9-17 20-22 31-6 11-19 52-40 123-21 70-34 109-38 114-5 4-12 5-19 3-8-3-15-6-23-11 0 0-10-7-10-7 0 0-19 25-19 25 6 7 14 16 24 27 9 11 27 26 51 45 25 20 46 31 64 35 10 2 19 1 27-4 8-4 14-10 18-18 5-7 9-18 12-31 3-12 6-24 8-35 1-11 3-24 6-39 2-14 4-26 6-34 5-18 9-32 11-41 3-9 5-18 9-28 3-9 6-16 9-20 3-3 6-5 9-5 14 0 35 28 65 85 14 26 15 47 3 63-12 17-32 17-57 1 7 43 31 75 71 96 36 19 67 20 93 5 28-16 38-46 30-90"/>
<glyph glyph-name="rss" unicode="&#45060;" d="M165 128c0-15-6-28-16-39-11-11-24-16-39-16-16 0-28 5-39 16-11 11-16 24-16 39 0 15 5 28 16 39 11 11 23 16 39 16 15 0 28-5 39-16 10-11 16-24 16-39z m146-35c0-5-1-10-5-14-3-4-8-6-13-6l-39 0c-5 0-9 2-12 5-4 3-6 7-6 12-4 43-22 81-53 112-31 31-68 48-112 52-4 1-8 3-11 6-4 3-5 8-5 12l0 39c0 5 2 10 6 13 3 4 7 5 12 5l2 0c30-2 59-10 87-23 28-13 52-30 74-52 22-21 39-46 52-74 13-28 20-57 23-87z m146-1c1-5-1-9-5-13-3-4-8-6-13-6l-41 0c-5 0-9 2-13 5-3 3-5 8-5 12-3 41-12 80-29 117-17 37-39 69-66 96-27 27-59 49-96 66-37 17-76 27-117 29-5 0-9 2-12 6-3 3-5 8-5 12l0 41c0 5 2 10 6 13 3 4 7 5 12 5l1 0c50-2 98-13 143-34 46-20 86-48 122-84 35-35 63-76 84-121 20-46 32-94 34-144z"/>
<glyph glyph-name="github" unicode="&#45061;" d="M201 165c0-8-1-16-3-24-3-8-7-15-13-22-6-6-12-9-20-9-8 0-15 3-21 9-6 7-10 14-12 22-3 8-4 16-4 24 0 7 1 15 4 23 2 8 6 15 12 22 6 6 13 9 21 9 8 0 14-3 20-9 6-7 10-14 13-22 2-8 3-16 3-23z m183 0c0-8-1-16-4-24-2-8-6-15-12-22-6-6-13-9-21-9-8 0-14 3-20 9-6 7-10 14-13 22-2 8-3 16-3 24 0 7 1 15 3 23 3 8 7 15 13 22 6 6 12 9 20 9 8 0 15-3 21-9 6-7 10-14 12-22 3-8 4-16 4-23z m46 0c0 22-7 42-20 58-13 16-31 24-53 24-8 0-27-2-56-6-14-2-29-3-45-3-16 0-31 1-45 3-29 4-47 6-56 6-22 0-40-8-53-24-13-16-20-36-20-58 0-17 3-32 9-44 7-13 14-23 24-30 9-7 21-13 34-17 14-4 28-7 40-8 13-2 27-2 43-2l48 0c16 0 30 0 43 2 12 1 26 4 40 8 13 4 25 10 34 17 10 7 17 17 24 30 6 12 9 27 9 44z m64 50c0-40-6-71-18-95-7-14-17-27-30-38-13-10-26-19-40-24-14-6-30-11-49-14-18-3-34-5-49-6-14-1-30-1-47-1-15 0-29 0-41 0-12 1-26 2-42 4-16 2-31 5-44 9-13 3-26 8-39 14-13 6-24 14-34 23-11 10-19 21-25 33-12 24-18 55-18 95 0 45 13 83 39 113-5 16-8 32-8 49 0 22 5 42 15 62 21 0 39-4 54-11 16-8 34-20 54-36 28 7 58 10 89 10 28 0 54-3 80-9 20 16 37 27 53 35 16 7 34 11 54 11 10-20 15-40 15-62 0-17-3-33-8-48 26-31 39-69 39-114z"/>
<glyph glyph-name="vk" unicode="&#45062;" d="M0 353c0 2 0 3 1 4l1 2c2 3 7 5 15 5l73 1c2-1 4-1 6-2 2-1 3-2 4-2l2-1c2-2 5-5 6-9 4-9 8-18 12-27 5-10 9-17 11-22l4-8c6-11 11-20 15-28 5-7 10-14 13-18 4-4 8-8 11-10 4-3 7-4 9-4 3 0 5 1 8 1 0 1 0 1 1 2 1 1 2 2 3 6 2 3 3 7 4 12 1 5 1 13 2 22 1 9 1 20 0 33 0 7-1 14-2 20-1 5-3 10-4 12l-1 3c-5 6-12 10-23 12-2 0-2 2 1 6 3 3 7 6 10 8 10 5 31 7 64 6 15 0 27-1 36-3 4-1 7-2 9-4 2-1 4-3 6-6 1-3 2-6 2-9 1-3 1-7 1-12 0-5 0-10 0-14 0-5 0-11-1-19 0-8 0-16 0-22 0-2 0-6 0-11-1-6-1-10 0-13 0-3 0-7 0-11 1-4 2-8 4-10 1-3 3-5 6-7 1 0 2-1 4-1 2 0 4 1 7 3 3 2 6 5 10 9 4 4 8 10 14 18 6 8 12 18 18 29 11 18 20 38 29 60 0 1 1 3 2 4 1 2 2 3 3 3l1 1 2 1c0 0 1 0 3 0 2 1 4 1 5 0l77 1c7 1 13 1 17-1 5-1 8-2 9-4l1-3c4-11-9-37-40-78-4-6-10-13-17-23-14-18-22-29-24-35-3-7-2-14 4-21 3-4 10-11 21-22l0 0 1 0 0-1 1 0c25-24 42-43 50-59 1-1 2-2 2-4 1-1 1-3 2-7 1-3 1-6 0-9-1-2-3-5-7-7-3-2-9-3-15-3l-69-1c-4-1-9-1-15 1-5 2-10 4-14 6l-5 3c-5 4-11 9-19 17-7 8-13 15-18 21-5 6-10 11-16 15-6 4-11 6-15 4-1 0-1 0-2-1-1 0-3-1-5-3-2-3-4-5-6-8-1-3-3-8-4-14-1-6-2-13-2-21 0-3 0-5-1-7 0-2-1-4-2-5l-1-1c-3-4-8-6-14-6l-31 0c-12-1-25 0-39 4-13 4-25 8-35 14-10 6-19 12-27 18-8 6-15 11-19 15l-7 7c-1 1-4 4-7 8-3 3-9 11-19 24-10 12-19 26-28 40-9 14-20 33-33 56-12 24-24 48-35 73-1 3-1 5-1 7z"/>
<glyph glyph-name="delicious" unicode="&#45063;" d="M37 119l0 274c0 23 8 42 24 58 16 16 35 24 58 24l274 0c23 0 42-8 58-24 16-16 24-35 24-58l0-274c0-23-8-42-24-58-16-16-35-24-58-24l-274 0c-23 0-42 8-58 24-16 16-24 35-24 58z m18 137l201 0 0-201 137 0c18 0 33 6 45 19 13 12 19 27 19 45l0 137-201 0 0 201-137 0c-18 0-33-6-45-19-13-12-19-27-19-45z"/>
<glyph glyph-name="youtube" unicode="&#45064;" d="M44 147c0 45 3 78 8 100 2 12 8 21 16 29 9 7 18 12 30 13 35 4 87 6 158 6 71 0 124-2 159-6 11-1 20-6 29-13 8-8 14-17 16-29 5-21 8-54 8-100 0-44-3-77-8-100-2-11-8-20-16-28-9-7-18-12-29-13-35-4-88-6-159-6-71 0-124 2-159 6-11 1-20 6-29 13-8 8-14 17-16 28-5 22-8 55-8 100z m32 72l30 0 0-163 29 0 0 163 30 0 0 26-89 0z m37 293l30 0 20-75 20 75 29 0-35-114 0-77-28 0 0 77c-3 14-9 34-18 61-7 19-13 37-18 53z m56-427c0-9 1-16 2-20 2-7 8-11 17-11 9 0 19 6 29 17l0-15 25 0 0 141-25 0 0-108c-6-8-11-12-16-12-4 0-6 2-6 6-1 1-1 4-1 10l0 104-25 0z m43 282l0 50c0 15 3 26 8 33 7 10 17 15 30 15 13 0 23-5 30-15 6-7 8-18 8-33l0-50c0-16-2-27-8-34-7-10-17-14-30-14-13 0-23 4-30 14-5 7-8 19-8 34z m26-5c0-13 4-20 12-20 8 0 12 7 12 20l0 60c0 13-4 20-12 20-8 0-12-7-12-20z m27-306l25 0 0 14c9-11 17-16 27-16 10 0 17 5 20 16 2 5 2 14 2 28l0 57c0 13 0 23-2 28-3 11-10 16-20 16-10 0-19-5-27-16l0 62-25 0z m25 27l0 86c4 5 8 7 13 7 7 0 11-7 11-19l0-61c0-12-4-19-11-19-5 0-9 2-13 6z m19 268l0 112 26 0 0-105c0-6 1-9 1-10 0-4 2-6 6-6 5 0 10 4 16 12l0 109 26 0 0-142-26 0 0 15c-10-12-20-17-29-17-9 0-15 3-17 10-2 5-3 12-3 22z m50-249c0-15 3-26 9-33 7-10 17-15 31-15 13 0 24 5 30 15 4 5 6 10 6 16 1 1 1 7 1 16l0 4-26 0c0-10 0-16-1-18-1-6-5-10-11-10-9 0-13 7-13 20l0 25 51 0 0 29c0 15-3 26-8 33-7 10-17 15-30 15-13 0-23-5-31-15-5-7-8-18-8-33z m26 41l0 13c0 13 4 20 13 20 8 0 13-7 13-20l0-13z"/>
<glyph glyph-name="soundcloud" unicode="&#45065;" d="M17 168c0-1-1-2-5-2-2 0-3 1-5 2 0 0-7 36-7 36 0 0 7 37 7 37 2 1 3 2 5 2 4 0 5-1 5-2 0 0 9-37 9-37 0 0-9-36-9-36m53-20c0-2-2-4-7-4-4 0-6 2-6 4 0 0-6 56-6 56 0 0 6 85 6 85 0 2 2 4 6 4 5 0 7-2 7-4 0 0 7-85 7-85 0 0-7-56-7-56m52 2c0-4-3-6-7-6-5 0-7 2-7 4 0 0-6 56-6 56 0 0 6 113 6 113 0 4 2 6 7 6 4 0 7-2 7-6 0 0 6-113 6-113 0 0-6-54-6-54m52 0c0-4-3-6-8-6-6 0-8 2-8 6 0 0-4 54-4 54 0 0 4 114 4 114 0 4 2 6 8 6 5 0 8-2 8-6 0 0 5-114 5-114 0 0-5-54-5-54m52 1c0-5-3-7-9-7-5 0-8 2-9 7 0 0-3 53-3 53 0 0 3 131 3 131 1 5 4 7 9 7 6 0 9-2 9-7 0 0 4-131 4-131 0 0-4-53-4-53m37-7c-5 0-7 3-7 8 0 0 0 202 0 202 0 4 2 6 6 7 12 5 27 8 43 8 30 0 56-10 78-30 23-20 35-44 38-73 8 4 17 5 25 5 18 0 34-6 47-19 13-12 19-27 19-44 0-18-6-33-19-46-13-12-29-19-47-19 0 0-183 1-183 1"/>
<glyph glyph-name="behance" unicode="&#45066;" d="M207 274c19 0 33-6 43-20 10-14 16-27 16-41 0 0 0-20 0-20 0-20-3-36-10-50-7-13-15-23-26-29-10-6-20-11-30-14-10-3-18-5-25-6 0 0-10 0-10 0 0 0-165 0-165 0 0 0 0 331 0 331 0 0 165 0 165 0 26 0 48-8 65-23 17-15 25-36 25-65 0-17-4-31-12-42-8-10-16-16-24-19 0 0-12-2-12-2m-134 93c0 0 0-74 0-74 0 0 87 0 87 0 9 0 15 2 20 8 5 5 7 15 7 31 0 10-1 18-5 24-4 6-8 9-12 10 0 0-5 1-5 1 0 0-92 0-92 0m88-213c25 0 38 14 38 43 0 13-3 24-9 31-5 8-10 12-16 13 0 0-9 1-9 1 0 0-92 0-92 0 0 0 0-88 0-88 0 0 88 0 88 0m239 187c24 0 44-5 61-15 16-10 28-22 34-36 7-14 11-28 14-42 3-14 4-25 3-35 0 0-1-15-1-15 0 0-164 0-164 0 0-19 5-33 14-42 9-10 19-15 28-15 0 0 13-1 13-1 16 0 28 3 37 9 8 6 13 11 14 17 0 0 1 9 1 9 0 0 55 0 55 0 0-28-9-49-27-63-18-15-36-22-54-23 0 0-28-1-28-1-24 0-45 4-62 13-17 8-29 19-37 32-7 12-13 25-17 37-4 12-5 23-5 31 0 0 0 13 0 13 0 3 0 8 0 14 0 6 3 16 7 31 5 14 11 27 19 38 7 11 20 21 37 30 16 9 36 14 58 14m51-99c0 1-1 3-1 5 0 3-1 7-3 13-2 5-4 11-7 15-2 4-7 8-14 12-7 4-15 6-24 6-14 0-26-4-35-13-10-8-16-17-18-26 0 0-3-12-3-12 0 0 105 0 105 0m13 164c0 0 0-40 0-40 0 0-131 0-131 0 0 0 0 40 0 40 0 0 131 0 131 0"/>
<glyph glyph-name="pinterest" unicode="&#45067;" d="M51 308c0 18 3 35 9 53 5 17 14 34 27 51 12 16 26 31 43 44 17 13 37 23 61 30 24 8 50 12 78 12 28 0 54-5 78-15 25-10 45-23 61-39 17-16 30-34 39-55 9-21 14-43 14-65 0-60-15-110-46-150-30-39-70-59-118-59-17 0-32 4-45 11-14 8-24 17-29 27-13-50-20-78-22-83-6-24-20-52-43-84l-21 0c-2 17-2 33-2 47 0 21 1 39 5 54l39 166c-6 13-9 29-9 48 0 22 5 41 17 56 11 15 25 23 41 23 13 0 23-5 30-13 7-9 11-20 11-33 0-9-2-19-4-30-4-13-8-26-12-41-4-11-8-23-11-37-1-4-1-8-1-12 0-11 3-20 10-29 10-11 23-17 39-17 28 0 52 15 70 47 18 31 27 70 27 114 0 35-12 63-34 84-22 22-53 33-93 33-45 0-81-14-108-43-28-28-41-63-41-103 0-23 6-43 20-60 3-3 4-7 4-12 0-1 0-3 0-4-2-5-4-13-6-25-1-3-3-6-6-7-3-2-6-2-9 0-21 8-36 23-47 44-10 21-16 45-16 72z"/>
<glyph glyph-name="vine" unicode="&#45068;" d="M31 435c6-42 13-82 22-119 9-38 18-70 28-97 10-27 21-52 33-75 11-23 22-42 33-57 10-15 21-28 31-40 11-11 20-20 27-26 6-5 13-10 18-13 9-5 18-8 26-8 8 0 16 2 24 7 5 3 12 8 21 16 8 7 18 17 29 29 11 12 23 24 34 38 11 14 22 30 33 47 11 18 21 35 29 52 21 0 42 3 62 7l0 61c-15-3-28-4-38-4-33 0-61 11-82 33-22 22-33 53-33 91 0 18 4 33 10 43 7 10 15 15 26 15 10 0 19-5 25-14 6-9 9-22 9-40 0-16-4-35-10-57 0 0 0-1 1-1 0-1 1-2 2-3 1-2 3-3 4-5 2-1 3-3 6-5 2-2 5-3 8-5 3-1 6-2 10-4 4-1 8-2 12-3 4 0 9 0 14 0 6 0 11 1 17 2 12 26 18 56 18 88 0 39-10 70-29 92-20 21-48 32-84 32-25 0-46-6-64-18-19-11-32-27-42-48-9-20-14-43-14-68 0-38 9-72 25-103 17-30 40-53 69-68-24-48-54-90-88-125-13 16-25 31-35 46-10 15-21 34-32 55-11 21-20 43-28 67-8 23-16 51-23 82-7 32-12 66-17 103z"/>
<glyph glyph-name="steam" unicode="&#45069;" d="M0 113l29-12c5-24 17-43 36-59 20-16 42-24 67-24 27 0 50 10 70 28 20 18 32 41 34 67l135 99c26 0 49 6 71 19 21 12 39 30 51 51 13 22 19 45 19 71 0 25-6 49-19 70-12 22-30 39-51 52-22 12-45 18-71 18-25 0-49-6-70-18-22-13-39-29-51-51-13-21-20-45-20-70l-87-126c-5 1-9 1-11 1-20 0-38-5-54-15l-78 32z m63-26l38-15c8-3 16-5 23-5l24 5c16 7 27 18 33 34 3 8 5 15 5 23 0 8-2 16-5 24-7 16-18 27-34 33l-32 13c5 1 11 2 17 2 21 0 39-8 54-23 15-15 23-33 23-55 0-21-8-39-23-54-15-15-33-23-54-23-15 0-29 4-41 11-12 8-21 18-28 30z m214 266c0 26 9 48 27 66 19 19 41 28 67 28 26 0 48-9 67-28 18-18 28-40 28-66 0-26-10-48-28-67-19-18-41-28-67-28-26 0-48 10-67 28-18 19-27 41-27 67z m19 0c0-21 7-38 22-53 15-15 33-22 54-22 20 0 38 7 53 22 15 15 22 32 22 53 0 21-7 39-22 53-15 15-33 22-53 22-21 0-39-7-54-22-15-14-22-32-22-53z"/>
<glyph glyph-name="flickr" unicode="&#45070;" d="M0 256c0-32 11-59 34-82 23-23 50-34 82-34 32 0 59 11 82 34 23 23 34 50 34 82 0 32-11 59-34 82-23 23-50 34-82 34-32 0-59-11-82-34-23-23-34-50-34-82z m280 0c0-32 11-59 34-82 23-23 50-34 82-34 32 0 59 11 82 34 23 23 34 50 34 82 0 32-11 59-34 82-23 23-50 34-82 34-32 0-59-11-82-34-23-23-34-50-34-82z"/>
<glyph glyph-name="envato" unicode="&#45071;" d="M32 177c5-29 15-55 31-80 53 137 107 251 161 341-73-30-123-63-149-96-19-24-32-50-39-79-5-17-7-35-7-52 0-11 1-23 3-34z m68-124c3-2 6-5 9-8 4-2 6-4 8-5 1-1 3-3 5-4 0 0 0 0 1-1 0 0 1 0 1 0 30-20 63-31 98-35 6 0 12 0 19 0 28 0 56 5 82 17 33 14 60 35 83 63 11 14 21 33 30 56 9 23 16 47 21 72 6 25 10 52 14 79 4 27 6 53 8 77 1 24 2 46 3 66 1 19 1 35 1 46l0 17c-1 6-4 11-8 14-4 3-8 5-13 5l-2 0c-12-3-26-6-44-11-113-108-218-257-316-448z"/>
<glyph glyph-name="forrst" unicode="&#45072;" d="M43 0l188 0 0 109-52 36 8 12 44-30 0 88 51 0 0-57 42 22 8-13-50-27 0-39 80 40 6-13-86-44 0-84 188 0-214 512z"/>
<glyph glyph-name="mailchimp" unicode="&#45073;" d="M0 82l0 227c8-9 18-17 29-25 69-47 116-79 142-98 11-8 20-15 26-19 7-4 16-9 27-14 12-4 22-7 32-7l0 0c10 0 20 3 32 7 11 5 20 10 27 14 6 4 15 11 26 19 33 23 80 56 142 98 11 8 21 16 29 25l0-227c0-12-4-23-13-32-9-9-20-13-33-13l-420 0c-13 0-24 4-33 13-9 9-13 20-13 32z m0 305c0 15 4 27 12 37 8 10 19 15 34 15l420 0c13 0 23-5 32-14 9-9 14-19 14-32 0-15-5-29-14-43-9-14-21-25-35-35-71-50-116-81-134-93-1-1-6-4-12-9-6-4-11-8-15-11-4-2-9-5-15-9-6-3-11-6-16-8-6-1-10-2-15-2l0 0c-5 0-9 1-15 2-5 2-10 5-16 8-6 4-11 7-15 9-4 3-9 7-15 11-6 5-11 8-12 9-18 12-43 30-75 52-33 23-52 36-59 41-12 8-23 19-33 33-11 14-16 27-16 39z"/>
<glyph glyph-name="linkedin" unicode="&#45074;" d="M450 483l-393 0c-19 0-34-14-34-33l0-394c0-19 15-34 34-34l393 0c19 0 34 15 34 34l0 394c0 19-15 33-34 33z m-287-385l-70 0 0 208 70 0z m-35 236l0 0c-24 0-39 16-39 36 0 20 16 36 39 36 24 0 39-16 39-36 0-20-15-36-39-36z m286-236l-70 0 0 111c0 28-10 47-35 47-19 0-31-13-36-25-2-5-2-11-2-17l0-116-70 0c0 0 1 188 0 208l70 0 0-30c9 14 26 35 63 35 45 0 80-30 80-94z m-143 177c0 1 0 1 0 1l0-1z"/>
<glyph glyph-name="tumblr" unicode="&#45075;" d="M296 110c-7 4-14 12-17 20-3 7-3 23-3 49l0 119 108 0 0 82-108 0 0 106-66 0c-3-23-8-43-16-58-8-16-18-29-31-40-13-11-35-19-53-25l0-65 63 0 0-162c0-21 2-37 7-48 4-11 12-22 24-32 11-9 25-17 42-22 16-6 29-8 50-8 18 0 36 1 52 5 16 4 34 10 54 20l0 72c-23-15-47-22-70-22-14 0-25 3-36 9z"/>
<glyph glyph-name="500px" unicode="&#45076;" d="M21 314c-7-36-12-65-12-66l0-1 43 0 2 2c3 4 9 10 13 12 7 4 19 6 29 4 17-3 29-14 33-32 1-3 1-6 1-12 0-7 0-9-2-13-4-16-14-27-28-32-3 0-4-1-12-1-9 0-12 1-18 4-11 5-18 16-20 28l-1 4-24 0c-13 0-24 0-24-1 0 0 0-2 0-5 2-19 9-32 21-45 9-8 19-15 31-19 12-3 23-5 37-5 16 0 26 2 40 8 17 9 30 22 39 39l3 5 0-2c8-18 25-35 44-43 10-4 17-5 32-5 10 0 12 0 17 1 14 3 28 10 41 20 6 5 12 11 24 22 8 9 9 10 10 9 2-3 15-17 20-22 18-16 35-25 54-29 4-1 6-1 16-1 13 0 18 0 27 3 19 7 34 20 44 38 12 22 14 53 6 78-9 28-30 47-59 53-5 1-7 1-17 1-13 0-17 0-26-3-10-4-19-8-28-14-10-8-19-17-34-34l-4-5-7 7c-7 9-21 23-26 27-11 9-23 15-33 19-9 2-14 3-25 3-10 1-17 0-25-2-22-6-41-22-50-43-1-2-1-4-2-5 0 0 0-1 0-1 0 0-1 2-2 4-8 16-25 30-42 35-8 2-13 3-22 3-19 0-31-4-44-15-2-3-3-3-4-3 0 1 2 13 5 28 2 14 4 26 4 27 0 0 23 0 50 0l49 0 0 39-133 0z m236-51c2 0 6-2 10-4 11-5 20-12 35-26l9-9-1-2c-2-2-15-15-19-18-11-9-23-15-33-18-5-1-17-1-23 0-6 2-10 4-14 9-4 3-5 5-7 9-3 7-4 11-4 20 0 5 0 8 1 10 3 12 11 23 19 27 6 3 10 4 17 3 5 0 8 0 10-1z m184 0c12-3 22-13 26-27 1-6 1-18 0-23-4-14-13-23-24-27-5-1-15-1-21 0-15 2-32 13-48 30-3 3-6 6-6 7-1 0 1 2 6 8 19 20 32 29 47 33 4 1 16 1 20-1z"/>
<glyph glyph-name="members" unicode="&#45077;" d="M492 217l-83 40c20 12 33 36 33 63 0 40-28 72-62 72-12 0-23-4-32-11 6-14 9-29 9-46 0-24-7-48-20-67 4-5 9-9 15-12l0 0 53-25c15-8 25-24 25-41l0-70 57 0c7 0 14 7 14 16l0 66c0 7-4 13-9 15z m-330 40c4 3 8 6 12 10-13 19-21 43-21 68 0 17 4 33 10 47-10 6-20 10-31 10-34 0-62-32-62-72 0-28 14-52 34-64l-84-39c-5-2-9-8-9-15l0-66c0-9 7-16 14-16l55 0 0 70c0 17 10 34 26 41z m232-49l-72 34-31 15c14 8 25 21 32 37 5 12 9 26 9 41 0 9-2 17-4 24-9 38-38 65-73 65-34 0-63-26-73-63-2-8-3-17-3-26 0-16 3-31 10-44 7-14 18-27 31-35l-29-13-75-35c-6-3-10-10-10-18l0-82c0-11 7-20 17-20l264 0c10 0 18 9 18 20l0 82c0 8-5 15-11 18z"/>
<glyph glyph-name="comments" unicode="&#45078;" d="M402 293c0-27-9-51-27-74-17-22-42-40-73-53-31-13-64-20-101-20-16 0-33 2-50 5-24-17-50-29-80-37-6-1-15-3-24-4l-1 0c-2 0-4 0-6 2-2 2-3 4-3 6 0 1 0 1 0 2 0 1 0 1 0 2 0 0 0 1 0 1l1 2c0 0 0 0 1 1 1 1 1 2 1 2 0 0 1 0 1 1 1 1 2 2 2 2 1 1 3 3 6 7 4 3 6 6 8 8 1 2 3 5 6 8 3 4 5 8 7 11 2 4 4 8 6 13-24 14-42 31-56 51-13 20-20 41-20 64 0 26 9 51 27 73 18 22 42 40 73 53 31 13 65 20 101 20 37 0 70-7 101-20 31-13 56-31 73-53 18-22 27-47 27-73z m110-74c0-22-7-44-20-64-14-20-32-36-56-50 2-5 4-9 6-13 2-4 4-7 7-11 3-3 5-6 6-8 2-2 4-5 8-8 3-4 5-6 6-8 1 0 1 0 2-1 0-1 1-1 1-1 0-1 1-1 1-2 0 0 1-1 1-1l1-2c0 0 0 0 0-1 1-2 1-2 0-2 0 0 0-1 0-2 0-3-2-5-4-6-1-2-4-3-6-2-9 1-18 2-24 4-30 8-56 20-80 37-17-3-34-5-50-5-52 0-97 13-135 38 11-1 19-1 25-1 31 0 60 4 88 13 29 8 54 20 76 36 24 18 42 38 55 61 12 23 19 47 19 73 0 14-2 29-7 43 25-14 44-30 59-51 14-20 21-42 21-66z"/>
<glyph glyph-name="posts" unicode="&#45079;" d="M366 119l0 18c0 3-1 5-3 7-2 1-4 2-6 2l-202 0c-2 0-4-1-6-2-2-2-3-4-3-7l0-18c0-3 1-5 3-7 2-1 4-2 6-2l202 0c2 0 4 1 6 2 2 2 3 4 3 7z m0 73l0 18c0 3-1 5-3 7-2 2-4 2-6 2l-202 0c-2 0-4 0-6-2-2-2-3-4-3-7l0-18c0-3 1-5 3-7 2-1 4-2 6-2l202 0c2 0 4 1 6 2 2 2 3 4 3 7z m73 101l0-229c0-8-3-14-8-19-5-6-12-8-20-8l-310 0c-8 0-15 2-20 8-5 5-8 11-8 19l0 384c0 8 3 14 8 19 5 6 12 8 20 8l155 0 0-155c0-8 3-14 8-19 5-6 12-8 19-8z m-1 36l-145 0 0 146c15-3 28-9 37-19l89-89c10-10 16-22 19-38z"/>
<glyph glyph-name="instagram" unicode="&#45080;" d="M359 512l-206 0c-85 0-153-68-153-153l0-206c0-85 68-153 153-153l206 0c85 0 153 68 153 153l0 206c0 85-68 153-153 153z m101-359c0-56-45-101-101-101l-206 0c-56 0-101 45-101 101l0 206c0 56 45 101 101 101l206 0c56 0 101-45 101-101z m-204 235c-73 0-132-59-132-132 0-73 59-132 132-132 73 0 132 59 132 132 0 73-59 132-132 132z m0-213c-45 0-81 36-81 81 0 45 36 81 81 81 45 0 81-36 81-81 0-45-36-81-81-81z m164 212c0-17-14-31-31-31-18 0-32 14-32 31 0 18 14 32 32 32 17 0 31-14 31-32z"/>
<glyph glyph-name="whatsapp" unicode="&#45081;" d="M512 263c0-138-113-250-251-250-44 0-86 11-122 31l-139-44 45 134c-23 37-36 81-36 129 0 137 113 249 252 249 138 0 251-112 251-249z m-251 209c-117 0-212-94-212-209 0-46 15-89 41-123l-27-78 81 26c34-22 74-35 117-35 116 0 211 94 211 210 0 115-95 209-211 209z m127-267c-2 3-6 4-12 7-6 3-37 18-42 20-6 2-10 3-14-3-4-6-16-20-20-24-3-4-7-4-13-1-6 3-26 9-50 30-18 16-30 36-34 42-3 6 0 10 3 13 3 2 6 7 9 10 3 4 4 7 6 11 2 4 1 7 0 10-2 3-14 33-19 46-5 12-11 10-14 10-4 0-8 0-12 0-4 0-11-1-16-7-6-6-22-21-22-51 0-30 22-59 25-63 3-4 43-68 105-93 63-24 63-16 74-15 12 1 37 15 42 29 5 14 5 27 4 29z"/>
<glyph glyph-name="line" unicode="&#45082;" d="M511 313l0 0 0 1c0 0 0 0 0 0 0 0 0 0 0 0l-1 5c0 1 0 2 0 4l0 1-1 0c-6 35-23 69-50 98-26 28-61 51-99 65-33 12-68 18-104 18-49 0-96-11-137-33-79-42-125-119-118-196 3-40 19-78 45-109 24-31 58-55 96-71 23-9 46-14 71-19l3 0c7-2 8-4 9-4 1-2 0-4 0-6 0-1-1-3-1-4-3-11-5-22-3-34 2-14 11-22 24-22 0 0 0 0 0 0 14 0 30 9 40 15l1 1c25 15 49 31 67 44 38 28 82 59 115 100 33 42 49 94 43 146z m-352-78l-44 0c-6 0-12 5-12 12l0 93c0 6 6 12 12 12 7 0 12-6 12-12l0-81 32 0c7 0 13-5 13-12 0-7-6-12-13-12z m47 12c0-6-6-12-13-12-6 0-12 6-12 12l0 93c0 7 6 12 12 12 7 0 13-5 13-12z m109 0c0-5-4-10-9-11-1-1-2-1-3-1-4 0-8 2-10 5l-44 60 0-53c0-6-5-12-12-12-6 0-12 6-12 12l0 90c0 5 4 10 9 12 5 1 10 0 13-5l44-60 0 56c0 7 5 12 12 12 6 0 12-5 12-12z m88-10l-60 0c-7 0-12 5-12 12l0 93c0 6 5 12 12 12l58 0c7 0 12-6 12-12 0-7-5-12-12-12l-46 0 0-22 37 0c7 0 12-6 12-13 0-6-5-12-12-12l-37 0 0-22 48 0c7 0 12-5 12-12 0-7-5-12-12-12z"/>
<glyph glyph-name="blackberry" unicode="&#45083;" d="M118 450l-71 0-21-97 75 0c58 0 75 29 75 55 1 18-11 42-58 42z m125-291l-73 0-20-97 75 0c58 0 75 29 75 55 0 18-10 42-57 42z m-150 150l-73 0-20-97 75 0c58 0 75 29 75 55 0 18-11 42-57 42z m335-97l-72 0-21-88 75 0c59 0 76 24 76 50 0 18-11 38-58 38z m27 150l-73 0-20-88 75 0c58 0 75 24 75 50 0 19-11 38-57 38z m-185-53l-72 0-21-97 75 0c59 0 76 29 76 55 0 18-11 42-58 42z m27 141l-73 0-20-97 75 0c58 0 75 29 75 55 0 18-11 42-57 42z"/>
<glyph glyph-name="viber" unicode="&#45084;" d="M492 388l0 0c-12 49-65 100-115 111l0 0c-80 15-161 15-241 0l0 0c-49-11-103-62-115-111l0 0c-15-67-15-136 0-203l0 0c11-46 61-96 109-109l0-54c0-20 23-29 37-15l54 57c12-1 24-1 36-1 40 0 80 3 120 11l0 0c50 11 103 62 115 111l0 0c15 67 15 136 0 203z m-43-193c-8-31-48-71-81-78-42-8-85-11-128-10-1 0-10 0-12-1-6-6-24-25-24-25l-42-43c-3-4-9-1-9 3l3 73c0 2-10 3-11 3-32 7-73 47-81 78-13 61-13 122 0 183 8 31 49 71 81 78 74 14 149 14 223 0 33-7 73-47 81-78 14-61 14-122 0-183z m-122-41c-5 1-10 2-14 4-46 19-88 44-121 81-19 21-34 45-46 71-6 12-11 25-16 37-5 11 2 23 9 32 7 8 16 14 25 18 7 4 15 2 20-4 12-14 22-28 31-44 5-9 4-21-6-28-2-1-4-3-7-5-1-1-3-3-5-5-2-4-2-9-1-13 12-33 32-58 65-72 6-2 11-4 17-4 10 1 13 13 20 18 7 6 16 6 24 1 7-4 15-9 22-15 7-5 14-10 20-15 7-6 9-13 5-21-6-13-16-25-29-32-4-2-9-3-13-4-5 1 4 1 0 0z m-70 259c59-2 109-41 119-100 2-10 2-21 3-31 1-4-2-8-6-8-5 0-7 4-8 8 0 8-1 17-2 25-6 45-42 82-86 90-7 1-13 1-20 2-4 0-10 1-11 6-1 4 3 8 7 8 1 0 3 0 4 0 59-2-1 0 0 0z m90-118c0 0 0-2 0-4-2-6-11-6-13 0 0 1-1 3-1 5 0 13-2 26-9 37-6 11-16 20-28 26-7 4-15 6-23 7-3 1-6 1-10 2-4 0-6 3-6 7 0 4 3 6 7 6 14-1 27-4 39-10 25-13 39-34 43-62 0-1 1-2 1-3 0-3 0-6 0-11 0 0 0 5 0 0z m-37 2c-5 0-7 3-8 7 0 3 0 7-1 10-2 6-5 11-10 15-3 2-5 3-8 4-4 1-8 1-11 2-4 1-7 4-6 8 1 3 4 6 8 5 23-1 39-13 42-40 0-2 0-4 0-6-1-3-3-5-6-5-5 0 3 0 0 0z"/>
<glyph glyph-name="skype" unicode="&#45085;" d="M465 221c2 10 3 22 3 33 0 118-96 214-214 214-11 0-22-1-33-3-20 12-43 19-68 19-71 0-129-57-129-129 0-25 7-48 19-68-2-11-2-22-2-33 0-118 95-214 213-214 12 0 23 1 34 3 19-12 43-19 68-19 71 0 129 57 129 129 0 25-7 48-20 68z m-109-64c-9-13-23-23-40-31-17-7-38-11-62-11-28 0-52 5-70 15-13 7-24 17-32 29-9 12-13 24-13 36 0 6 3 12 8 17 5 5 12 7 19 7 7 0 12-2 16-5 5-4 9-10 12-17 3-8 7-15 11-21 4-5 10-10 18-14 7-3 17-5 30-5 17 0 31 4 41 11 11 7 16 16 16 27 0 9-3 15-8 21-6 5-13 9-23 12-9 3-21 6-36 9-21 5-38 10-52 16-14 6-26 15-34 25-8 11-12 24-12 39 0 15 4 28 13 40 9 11 21 20 38 26 16 7 35 10 58 10 17 0 33-2 46-6 13-5 23-10 32-17 9-7 15-14 19-21 4-8 6-15 6-22 0-7-3-13-8-18-5-6-11-8-19-8-7 0-12 1-16 5-3 3-7 8-11 15-5 10-11 18-19 23-7 6-18 8-34 8-15 0-27-3-36-9-9-6-13-13-13-21 0-5 1-9 4-13 3-4 7-7 13-10 5-3 11-5 16-6 6-2 15-4 28-7 16-4 31-8 44-12 13-4 24-9 34-15 9-7 16-14 22-24 5-9 7-21 7-34 0-17-4-31-13-44z"/>
<glyph glyph-name="gplus" unicode="&#45086;" d="M500 289l-32 0 0 33c0 6-6 12-13 12l-43 0c-7 0-12-6-12-12l0-33-32 0c-7 0-13-5-13-12l0-43c0-7 6-12 13-12l32 0 0-32c0-7 5-13 12-13l43 0c7 0 13 6 13 13l0 32 32 0c7 0 12 5 12 12l0 43c0 7-5 12-12 12z m-334 54c14 0 29-4 41-12l14-9c4-4 11-3 15 1l40 40c3 3 4 6 4 10 0 3-2 7-5 9l-24 16c0 0-1 1-1 1l-23 11c0 0-1 0-1 0-19 8-40 12-61 12-44 0-85-17-116-47-31-31-49-73-49-118 0-45 17-87 48-118 31-31 74-49 120-49 45 0 87 17 115 48 23 24 37 56 41 93 0 0 0 1 0 1l0 33c0 1 0 1 0 2l-2 11c-1 6-6 11-12 11l-141 0c-6 0-12-6-12-12l0-49c0-7 6-12 12-12l72 0c-3-8-8-15-15-22-14-16-36-25-58-25-24 0-46 10-62 25-32 34-32 92 1 124 15 16 37 25 59 25z"/>
<glyph glyph-name="telegram" unicode="&#45087;" d="M478 470l-467-182c-15-6-14-28 1-33l119-35 44-140c5-15 23-19 34-8l62 62 120-88c15-11 36-3 40 15l79 381c4 19-14 35-32 28z m-59-85l-217-192c-2-2-3-4-3-7l-9-75c0-2-3-2-4 0l-35 111c-1 5 1 10 5 13l257 159c6 4 12-4 6-9z"/>
<glyph glyph-name="apple" unicode="&#45088;" d="M453 165c-8-24-19-48-35-72-25-37-49-56-74-56-9 0-22 3-40 10-16 6-30 9-43 9-11 0-25-3-40-10-16-6-28-9-38-9-29 0-58 24-86 74-28 49-42 97-42 143 0 44 11 79 32 107 21 28 49 41 81 41 14 0 31-3 51-8 20-6 33-9 39-9 9 0 22 3 41 10 20 6 36 10 50 10 22 0 43-7 60-19 10-7 20-16 30-29-15-12-26-24-32-33-13-18-19-38-19-59 0-24 7-45 20-64 13-19 28-31 45-36z m-108 335c0-12-2-25-8-39-6-14-14-27-26-39-11-11-21-17-31-21-7-2-17-4-30-5 1 29 8 53 22 74 14 20 38 34 72 42 0-1 0-2 0-3 1-2 1-3 1-3 0-1 0-2 0-3 0-1 0-2 0-3z"/>
<glyph glyph-name="android" unicode="&#45089;" d="M196 374c3 0 5 1 8 3 2 2 3 5 3 8 0 3-1 6-3 8-3 2-5 3-8 3-3 0-6-1-8-3-2-2-3-5-3-8 0-3 1-6 3-8 2-2 5-3 8-3z m120 0c3 0 6 1 8 3 2 2 3 5 3 8 0 3-1 6-3 8-2 2-5 3-8 3-3 0-5-1-8-3-2-2-3-5-3-8 0-3 1-6 3-8 3-2 5-3 8-3z m-232-53c8 0 15-2 21-8 6-6 8-13 8-21l0-123c0-8-2-15-8-20-6-6-13-9-21-9-8 0-15 3-21 9-5 5-8 12-8 20l0 123c0 8 3 15 8 21 6 6 13 8 21 8z m303-5l0-190c0-9-3-16-9-23-6-6-13-9-22-9l-21 0 0-65c0-8-3-15-9-20-6-6-13-9-21-9-8 0-15 3-21 9-5 5-8 12-8 20l0 65-40 0 0-65c0-8-3-15-8-20-6-6-13-9-21-9-8 0-15 3-21 9-5 5-8 12-8 20l-1 65-21 0c-8 0-16 3-22 9-6 7-9 14-9 23l0 190z m-66 116c20-11 37-25 49-44 12-19 18-39 18-62l-264 0c0 23 6 43 18 62 12 19 29 33 49 44l-20 37c-1 3-1 5 1 6 3 1 5 0 6-2l21-38c18 8 37 12 57 12 20 0 39-4 57-12l21 38c1 2 3 3 6 2 2-1 2-3 1-6z m136-140l0-123c0-8-3-15-8-20-6-6-13-9-21-9-8 0-15 3-21 9-6 5-8 12-8 20l0 123c0 8 2 15 8 21 6 6 13 8 21 8 8 0 15-2 21-8 5-6 8-13 8-21z"/>
<glyph glyph-name="fire-1" unicode="&#45090;" d="M181 1c5-3 10 3 7 8-17 25-32 69-7 125 41 93 67 142 67 142 0 0 13-57 50-107 35-48 55-109 24-160-3-4 2-10 7-7 38 19 82 59 87 138 1 24-1 57-15 100-17 54-39 79-51 90-4 3-9 0-9-5 4-58-18-73-31-40-5 14-8 37-8 65 0 46-13 94-43 133-8 10-17 20-27 28-4 3-9 0-9-5 2-32 0-122-79-230-72-100-44-177-34-198 19-40 45-64 71-77z"/>
<glyph glyph-name="fire-2" unicode="&#45091;" d="M159 0c-34 71-16 111 10 150 29 42 36 83 36 83 0 0 23-29 14-75 40 45 47 115 41 142 91-63 129-199 77-300 277 156 69 390 33 416 12-26 14-71-10-92-41 156-143 188-143 188 12-81-44-169-98-235-2 33-4 55-21 86-3-59-48-106-60-165-16-79 12-137 121-198z"/>
<glyph glyph-name="publisher" unicode="&#45092;" d="M249 306c57 0 103 46 103 103 0 57-46 103-103 103-56 0-102-46-102-103 0-57 46-103 102-103z m118-25l121 52 0-160c0-49-36-103-81-122l-120-51 0 160c0 48 36 103 80 121z m-142-121c0 48-36 103-80 121l-121 52 0-160c0-49 36-103 81-122l120-51z"/>
<glyph glyph-name="betterstudio" unicode="&#45093;" d="M340 506l0-168-167 0 0-167-166 0 0-168 499 0 0 503z"/>
<glyph glyph-name="fire-3" unicode="&#45094;" d="M443 227c-21 29-31 52-34 89-2 28 10 60 10 60-15-10-15-9-24-17-50-41-63-82-65-87 0-1 0-1 0-1l0 1c0 0 39 152-69 222-9 6-30 18-30 18 0 0 54-132-42-210-19 77-119 78-119 78 0 0 8-27 9-33 16-84-34-110-44-190 2 9 1 6 0 0 0 0 0 0 0 0 0 0 0 0 0 0 0 0 0 0 0 0-7-62 22-111 68-143 2 22 11 44 24 62 14 21 21 36 23 62 1 19-7 41-7 41 10-7 10-6 17-11 28-23 39-47 43-56 0 0 0 0 0 0-5 21-18 105 49 149 7 4 21 12 21 12 0 0-38-83 46-151-2 28 8 54 28 73 11 11 30 16 30 16 0 0-5-18-6-23-11-58 38-103 27-158-2-10-4-20-8-30l4 0c25 13 48 30 64 54 35 54 19 122-15 173z"/>
<glyph glyph-name="fire-4" unicode="&#45095;" d="M461 365c-20-89-74-98-77-71-14 109 124 107 116 218-22-81-100-67-143-123-43-55-28 34-21 56-75-34-31-119-59-137-7-4-22-2-29 41-7 44 33 100 51 112-22 1-92-43-96-96-5-52-72-116-91-98-19 19 70 56 57 98-25-67-134-14-153-130-27-159 97-207 97-207 15-8 30-13 45-18-4 4-8 9-12 14-24 34 8 51 34 67-7-24 24-58 34-39 10 18 29 86 59 92-17-26 15-108-22-144 21 2 44 5 69 11 73 18 134 107 154 177-117-104-6 88-13 177z m-413-104c-23-32-23-99-22-114-7 24-14 65 6 113 21 49 101 66 101 66-48-24-70-44-85-65z"/>
<glyph glyph-name="disqus" unicode="&#45096;" d="M265 320l-30 0 0-126 30 0c35 0 63 28 63 63 0 34-28 63-63 63z m1 181c-136 0-246-109-246-245 0-36 8-70 22-101l-41-98 107 11c43-35 98-57 158-57 135 0 245 110 245 245 0 136-110 245-245 245z m7-369l-107 0 0 249 107 0c34 0 66-14 88-36 23-23 37-54 37-88 0-69-56-125-125-125z"/>
<glyph glyph-name="better-amp" unicode="&#45097;" d="M404 255l-121 70 61 146c2 4 3 8 3 13 0 15-13 28-28 28-7 0-13-2-18-6-1-1-1-1-2-2l-213-202c-7-6-10-15-9-24 1-9 6-17 14-21l121-70-62-148c-5-12-1-26 10-34 5-3 11-5 16-5 7 0 14 3 20 8l213 202c7 6 10 15 9 24-1 9-6 17-14 21z"/>
</font>
</defs>
</svg>
