<?xml version="1.0" standalone="no"?>
<!DOCTYPE svg PUBLIC "-//W3C//DTD SVG 1.1//EN" "http://www.w3.org/Graphics/SVG/1.1/DTD/svg11.dtd" >
<svg xmlns="http://www.w3.org/2000/svg">
<metadata>Generated by IcoMoon</metadata>
<defs>
<font id="VC-Icons" horiz-adv-x="1024">
<font-face units-per-em="1024" ascent="960" descent="-64" />
<missing-glyph horiz-adv-x="1024" />
<glyph unicode="&#x20;" horiz-adv-x="512" d="" />
<glyph unicode="&#xe145;" glyph-name="add" d="M810 384.667h-256v-256h-84v256h-256v84h256v256h84v-256h256v-84z" />
<glyph unicode="&#xe14d;" glyph-name="content_copy" d="M810 42.667v598h-468v-598h468zM810 724.667c46 0 86-38 86-84v-598c0-46-40-86-86-86h-468c-46 0-86 40-86 86v598c0 46 40 84 86 84h468zM682 896.667v-86h-512v-598h-84v598c0 46 38 86 84 86h512z" />
<glyph unicode="&#xe254;" glyph-name="mode_edit" d="M884 638.667l-78-78-160 160 78 78c16 16 44 16 60 0l100-100c16-16 16-44 0-60zM128 202.667l472 472 160-160-472-472h-160v160z" />
<glyph unicode="&#xe30c;" glyph-name="layout_default" d="M896 256.667v512h-768v-512h768zM896 852.667c46 0 86-38 86-84v-512c0-46-40-86-86-86h-298v-86h84v-84h-340v84h84v86h-298c-46 0-86 40-86 86v512c0 46 40 84 86 84h768z" />
<glyph unicode="&#xe324;" glyph-name="layout_portrait-smartphones" d="M736 170.667v598h-448v-598h448zM598 42.667v42h-172v-42h172zM682 896.667c70 0 128-58 128-128v-684c0-70-58-128-128-128h-340c-70 0-128 58-128 128v684c0 70 58 128 128 128h340z" />
<glyph unicode="&#xe5c4;" glyph-name="arrow_back" d="M854 468.667v-84h-520l238-240-60-60-342 342 342 342 60-60-238-240h520z" />
<glyph unicode="&#xe5c5;" glyph-name="arrow_drop_down" d="M298 512.667h428l-214-214z" />
<glyph unicode="&#xe5c7;" glyph-name="arrow_drop_up" d="M298 340.667l214 214 214-214h-428z" />
<glyph unicode="&#xe5c8;" glyph-name="arrow_forward" d="M512 768.667l342-342-342-342-60 60 238 240h-520v84h520l-238 240z" />
<glyph unicode="&#xe5ca;" glyph-name="check" d="M384 248.667l452 452 60-60-512-512-238 238 60 60z" />
<glyph unicode="&#xe5cd;" glyph-name="close" d="M810 664.667l-238-238 238-238-60-60-238 238-238-238-60 60 238 238-238 238 60 60 238-238 238 238z" />
<glyph unicode="&#xe5d0;" glyph-name="fullscreen" d="M598 724.667h212v-212h-84v128h-128v84zM726 212.667v128h84v-212h-212v84h128zM214 512.667v212h212v-84h-128v-128h-84zM298 340.667v-128h128v-84h-212v212h84z" />
<glyph unicode="&#xe5d1;" glyph-name="fullscreen_exit" d="M682 596.667h128v-84h-212v212h84v-128zM598 128.667v212h212v-84h-128v-128h-84zM342 596.667v128h84v-212h-212v84h128zM214 256.667v84h212v-212h-84v128h-128z" />
<glyph unicode="&#xe5d8;" glyph-name="arrow_upward" d="M170 426.667l342 342 342-342-62-60-238 238v-520h-84v520l-240-238z" />
<glyph unicode="&#xe5db;" glyph-name="arrow_downward" d="M854 426.667l-342-342-342 342 62 60 238-238v520h84v-520l240 238z" />
<glyph unicode="&#xe627;" glyph-name="sync" d="M512 170.667v128l170-170-170-172v128c-188 0-342 154-342 342 0 66 20 130 54 182l62-62c-20-36-30-76-30-120 0-142 114-256 256-256zM512 768.667c188 0 342-154 342-342 0-66-20-130-54-182l-62 62c20 36 30 76 30 120 0 142-114 256-256 256v-128l-170 170 170 172v-128z" />
<glyph unicode="&#xe88a;" glyph-name="home" d="M426 84.667h-212v342h-128l426 384 426-384h-128v-342h-212v256h-172v-256z" />
<glyph unicode="&#xe899;" glyph-name="lock_outline" d="M768 84.667v428h-512v-428h512zM380 682.667v-86h264v86c0 72-60 132-132 132s-132-60-132-132zM768 596.667c46 0 86-38 86-84v-428c0-46-40-84-86-84h-512c-46 0-86 38-86 84v428c0 46 40 84 86 84h42v86c0 118 96 214 214 214s214-96 214-214v-86h42zM512 212.667c-46 0-86 40-86 86s40 86 86 86 86-40 86-86-40-86-86-86z" />
<glyph unicode="&#xe8b6;" glyph-name="search" d="M406 340.667c106 0 192 86 192 192s-86 192-192 192-192-86-192-192 86-192 192-192zM662 340.667l212-212-64-64-212 212v34l-12 12c-48-42-112-66-180-66-154 0-278 122-278 276s124 278 278 278 276-124 276-278c0-68-24-132-66-180l12-12h34z" />
<glyph unicode="&#xe8b8;" glyph-name="cog" d="M512 276.667c82 0 150 68 150 150s-68 150-150 150-150-68-150-150 68-150 150-150zM830 384.667l90-70c8-6 10-18 4-28l-86-148c-6-10-16-12-26-8l-106 42c-22-16-46-32-72-42l-16-112c-2-10-10-18-20-18h-172c-10 0-18 8-20 18l-16 112c-26 10-50 24-72 42l-106-42c-10-4-20-2-26 8l-86 148c-6 10-4 22 4 28l90 70c-2 14-2 28-2 42s0 28 2 42l-90 70c-8 6-10 18-4 28l86 148c6 10 16 12 26 8l106-42c22 16 46 32 72 42l16 112c2 10 10 18 20 18h172c10 0 18-8 20-18l16-112c26-10 50-24 72-42l106 42c10 4 20 2 26-8l86-148c6-10 4-22-4-28l-90-70c2-14 2-28 2-42s0-28-2-42z" />
<glyph unicode="&#xe900;" glyph-name="add_template" d="M554.667 533.333h297.613v-426.667h-297.613v426.667zM170.667 533.333h297.613v-426.667h-297.613v426.667zM170.667 789.333h682.667v-170.667h-682.667v170.667z" />
<glyph unicode="&#xe901;" glyph-name="add_element" d="M597.333 533.333v256h-170.667v-256h-256v-170.667h256v-256h170.667v256h256v170.667z" />
<glyph unicode="&#xe902;" glyph-name="dragndrop" d="M768 491.349h-212.992v212.651h84.992l-128 128-128-128h84.992v-212.651h-212.992v84.651l-128-128 128-128v85.333h212.992v-213.333h-84.992l128-128 128 128h-84.992v213.333h212.992v-85.333l128 128-128 128z" />
<glyph unicode="&#xe903;" glyph-name="minimize_up" d="M213.333 789.333h597.333v-85.333h-597.333v85.333z" />
<glyph unicode="&#xe904;" glyph-name="1-1" horiz-adv-x="2141" d="M0 960h2141.091v-93.091h-2141.091v93.091zM0 773.818h2141.091v-93.091h-2141.091v93.091zM0 587.636h2141.091v-93.091h-2141.091v93.091zM0 401.455h2141.091v-93.091h-2141.091v93.091zM0 215.273h2141.091v-93.091h-2141.091v93.091zM0 29.091h2141.091v-93.091h-2141.091v93.091z" />
<glyph unicode="&#xe905;" glyph-name="1-2_1-2" horiz-adv-x="2141" d="M0 960h1024v-93.091h-1024v93.091zM0 773.818h1024v-93.091h-1024v93.091zM0 587.636h1024v-93.091h-1024v93.091zM0 401.455h1024v-93.091h-1024v93.091zM0 215.273h1024v-93.091h-1024v93.091zM0 29.091h1024v-93.091h-1024v93.091zM1117.091 960h1024v-93.091h-1024v93.091zM1117.091 773.818h1024v-93.091h-1024v93.091zM1117.091 587.636h1024v-93.091h-1024v93.091zM1117.091 401.455h1024v-93.091h-1024v93.091zM1117.091 215.273h1024v-93.091h-1024v93.091zM1117.091 29.091h1024v-93.091h-1024v93.091z" />
<glyph unicode="&#xe906;" glyph-name="1-3_1-3_1-3" horiz-adv-x="2141" d="M0 960h651.636v-93.091h-651.636v93.091zM744.727 960h651.636v-93.091h-651.636v93.091zM1489.455 960h651.636v-93.091h-651.636v93.091zM0 773.818h651.636v-93.091h-651.636v93.091zM744.727 773.818h651.636v-93.091h-651.636v93.091zM1489.455 773.818h651.636v-93.091h-651.636v93.091zM0 587.636h651.636v-93.091h-651.636v93.091zM744.727 587.636h651.636v-93.091h-651.636v93.091zM1489.455 587.636h651.636v-93.091h-651.636v93.091zM0 401.455h651.636v-93.091h-651.636v93.091zM744.727 401.455h651.636v-93.091h-651.636v93.091zM1489.455 401.455h651.636v-93.091h-651.636v93.091zM0 215.273h651.636v-93.091h-651.636v93.091zM744.727 215.273h651.636v-93.091h-651.636v93.091zM1489.455 215.273h651.636v-93.091h-651.636v93.091zM0 29.091h651.636v-93.091h-651.636v93.091zM744.727 29.091h651.636v-93.091h-651.636v93.091zM1489.455 29.091h651.636v-93.091h-651.636v93.091z" />
<glyph unicode="&#xe907;" glyph-name="1-4_1-2_1-4" horiz-adv-x="2141" d="M0 29.091h465.455v-93.091h-465.455v93.091zM558.545 29.091h1024v-93.091h-1024v93.091zM1675.636 29.091h465.455v-93.091h-465.455v93.091zM0 215.273h465.455v-93.091h-465.455v93.091zM558.545 215.273h1024v-93.091h-1024v93.091zM1675.636 215.273h465.455v-93.091h-465.455v93.091zM0 401.455h465.455v-93.091h-465.455v93.091zM558.545 401.455h1024v-93.091h-1024v93.091zM1675.636 401.455h465.455v-93.091h-465.455v93.091zM0 587.636h465.455v-93.091h-465.455v93.091zM558.545 587.636h1024v-93.091h-1024v93.091zM1675.636 587.636h465.455v-93.091h-465.455v93.091zM0 773.818h465.455v-93.091h-465.455v93.091zM558.545 773.818h1024v-93.091h-1024v93.091zM1675.636 773.818h465.455v-93.091h-465.455v93.091zM0 960h465.455v-93.091h-465.455v93.091zM558.545 960h1024v-93.091h-1024v93.091zM1675.636 960h465.455v-93.091h-465.455v93.091z" />
<glyph unicode="&#xe908;" glyph-name="1-4_1-4_1-4_1-4" horiz-adv-x="2141" d="M0 29.091h465.455v-93.091h-465.455v93.091zM558.545 29.091h465.455v-93.091h-465.455v93.091zM1117.091 29.091h465.455v-93.091h-465.455v93.091zM1675.636 29.091h465.455v-93.091h-465.455v93.091zM0 215.273h465.455v-93.091h-465.455v93.091zM558.545 215.273h465.455v-93.091h-465.455v93.091zM1117.091 215.273h465.455v-93.091h-465.455v93.091zM1675.636 215.273h465.455v-93.091h-465.455v93.091zM0 401.455h465.455v-93.091h-465.455v93.091zM558.545 401.455h465.455v-93.091h-465.455v93.091zM1117.091 401.455h465.455v-93.091h-465.455v93.091zM1675.636 401.455h465.455v-93.091h-465.455v93.091zM0 587.636h465.455v-93.091h-465.455v93.091zM558.545 587.636h465.455v-93.091h-465.455v93.091zM1117.091 587.636h465.455v-93.091h-465.455v93.091zM1675.636 587.636h465.455v-93.091h-465.455v93.091zM0 773.818h465.455v-93.091h-465.455v93.091zM558.545 773.818h465.455v-93.091h-465.455v93.091zM1117.091 773.818h465.455v-93.091h-465.455v93.091zM1675.636 773.818h465.455v-93.091h-465.455v93.091zM0 960h465.455v-93.091h-465.455v93.091zM558.545 960h465.455v-93.091h-465.455v93.091zM1117.091 960h465.455v-93.091h-465.455v93.091zM1675.636 960h465.455v-93.091h-465.455v93.091z" />
<glyph unicode="&#xe909;" glyph-name="1-4_3-4" horiz-adv-x="2141" d="M0 960h465.455v-93.091h-465.455v93.091zM558.545 960h1582.545v-93.091h-1582.545v93.091zM0 773.818h465.455v-93.091h-465.455v93.091zM558.545 773.818h1582.545v-93.091h-1582.545v93.091zM0 587.636h465.455v-93.091h-465.455v93.091zM558.545 587.636h1582.545v-93.091h-1582.545v93.091zM0 401.455h465.455v-93.091h-465.455v93.091zM558.545 401.455h1582.545v-93.091h-1582.545v93.091zM0 215.273h465.455v-93.091h-465.455v93.091zM558.545 215.273h1582.545v-93.091h-1582.545v93.091zM0 29.091h465.455v-93.091h-465.455v93.091zM558.545 29.091h1582.545v-93.091h-1582.545v93.091z" />
<glyph unicode="&#xe90b;" glyph-name="1-6_1-6_1-6_1-2" horiz-adv-x="2141" d="M1117.091 29.091h1024v-93.091h-1024v93.091zM744.727 29.091h279.273v-93.091h-279.273v93.091zM372.364 29.091h279.273v-93.091h-279.273v93.091zM0 29.091h279.273v-93.091h-279.273v93.091zM1117.091 215.273h1024v-93.091h-1024v93.091zM744.727 215.273h279.273v-93.091h-279.273v93.091zM372.364 215.273h279.273v-93.091h-279.273v93.091zM0 215.273h279.273v-93.091h-279.273v93.091zM1117.091 401.455h1024v-93.091h-1024v93.091zM744.727 401.455h279.273v-93.091h-279.273v93.091zM372.364 401.455h279.273v-93.091h-279.273v93.091zM0 401.455h279.273v-93.091h-279.273v93.091zM1117.091 587.636h1024v-93.091h-1024v93.091zM744.727 587.636h279.273v-93.091h-279.273v93.091zM372.364 587.636h279.273v-93.091h-279.273v93.091zM0 587.636h279.273v-93.091h-279.273v93.091zM1117.091 773.818h1024v-93.091h-1024v93.091zM744.727 773.818h279.273v-93.091h-279.273v93.091zM372.364 773.818h279.273v-93.091h-279.273v93.091zM0 773.818h279.273v-93.091h-279.273v93.091zM1117.091 960h1024v-93.091h-1024v93.091zM744.727 960h279.273v-93.091h-279.273v93.091zM372.364 960h279.273v-93.091h-279.273v93.091zM0 960h279.273v-93.091h-279.273v93.091z" />
<glyph unicode="&#xe90c;" glyph-name="1-6_1-6_1-6_1-6_1-6_1-6" horiz-adv-x="2141" d="M0 29.091h279.273v-93.091h-279.273v93.091zM372.364 29.091h279.273v-93.091h-279.273v93.091zM744.727 29.091h279.273v-93.091h-279.273v93.091zM1117.091 29.091h279.273v-93.091h-279.273v93.091zM1489.455 29.091h279.273v-93.091h-279.273v93.091zM1861.818 29.091h279.273v-93.091h-279.273v93.091zM0 215.273h279.273v-93.091h-279.273v93.091zM372.364 215.273h279.273v-93.091h-279.273v93.091zM744.727 215.273h279.273v-93.091h-279.273v93.091zM1117.091 215.273h279.273v-93.091h-279.273v93.091zM1489.455 215.273h279.273v-93.091h-279.273v93.091zM1861.818 215.273h279.273v-93.091h-279.273v93.091zM0 401.455h279.273v-93.091h-279.273v93.091zM372.364 401.455h279.273v-93.091h-279.273v93.091zM744.727 401.455h279.273v-93.091h-279.273v93.091zM1117.091 401.455h279.273v-93.091h-279.273v93.091zM1489.455 401.455h279.273v-93.091h-279.273v93.091zM1861.818 401.455h279.273v-93.091h-279.273v93.091zM0 587.636h279.273v-93.091h-279.273v93.091zM372.364 587.636h279.273v-93.091h-279.273v93.091zM744.727 587.636h279.273v-93.091h-279.273v93.091zM1117.091 587.636h279.273v-93.091h-279.273v93.091zM1489.455 587.636h279.273v-93.091h-279.273v93.091zM1861.818 587.636h279.273v-93.091h-279.273v93.091zM0 773.818h279.273v-93.091h-279.273v93.091zM372.364 773.818h279.273v-93.091h-279.273v93.091zM744.727 773.818h279.273v-93.091h-279.273v93.091zM1117.091 773.818h279.273v-93.091h-279.273v93.091zM1489.455 773.818h279.273v-93.091h-279.273v93.091zM1861.818 773.818h279.273v-93.091h-279.273v93.091zM0 960h279.273v-93.091h-279.273v93.091zM372.364 960h279.273v-93.091h-279.273v93.091zM744.727 960h279.273v-93.091h-279.273v93.091zM1117.091 960h279.273v-93.091h-279.273v93.091zM1489.455 960h279.273v-93.091h-279.273v93.091zM1861.818 960h279.273v-93.091h-279.273v93.091z" />
<glyph unicode="&#xe90d;" glyph-name="1-6_2-3_1-6" horiz-adv-x="2141" d="M0 960h279.273v-93.091h-279.273v93.091zM1861.818 960h279.273v-93.091h-279.273v93.091zM372.364 960h1396.364v-93.091h-1396.364v93.091zM0 773.818h279.273v-93.091h-279.273v93.091zM1861.818 773.818h279.273v-93.091h-279.273v93.091zM372.364 773.818h1396.364v-93.091h-1396.364v93.091zM0 587.636h279.273v-93.091h-279.273v93.091zM1861.818 587.636h279.273v-93.091h-279.273v93.091zM372.364 587.636h1396.364v-93.091h-1396.364v93.091zM0 401.455h279.273v-93.091h-279.273v93.091zM1861.818 401.455h279.273v-93.091h-279.273v93.091zM372.364 401.455h1396.364v-93.091h-1396.364v93.091zM0 215.273h279.273v-93.091h-279.273v93.091zM1861.818 215.273h279.273v-93.091h-279.273v93.091zM372.364 215.273h1396.364v-93.091h-1396.364v93.091zM0 29.091h279.273v-93.091h-279.273v93.091zM1861.818 29.091h279.273v-93.091h-279.273v93.091zM372.364 29.091h1396.364v-93.091h-1396.364v93.091z" />
<glyph unicode="&#xe90e;" glyph-name="2-3_1-3" horiz-adv-x="2141" d="M0 29.091h1396.364v-93.091h-1396.364v93.091zM1489.455 29.091h651.636v-93.091h-651.636v93.091zM0 215.273h1396.364v-93.091h-1396.364v93.091zM1489.455 215.273h651.636v-93.091h-651.636v93.091zM0 401.455h1396.364v-93.091h-1396.364v93.091zM1489.455 401.455h651.636v-93.091h-651.636v93.091zM0 587.636h1396.364v-93.091h-1396.364v93.091zM1489.455 587.636h651.636v-93.091h-651.636v93.091zM0 773.818h1396.364v-93.091h-1396.364v93.091zM1489.455 773.818h651.636v-93.091h-651.636v93.091zM0 960h1396.364v-93.091h-1396.364v93.091zM1489.455 960h651.636v-93.091h-651.636v93.091z" />
<glyph unicode="&#xe90f;" glyph-name="5-6_1-6" horiz-adv-x="2141" d="M1861.818 960h279.273v-93.091h-279.273v93.091zM0 960h1768.727v-93.091h-1768.727v93.091zM1861.818 773.818h279.273v-93.091h-279.273v93.091zM0 773.818h1768.727v-93.091h-1768.727v93.091zM1861.818 587.636h279.273v-93.091h-279.273v93.091zM0 587.636h1768.727v-93.091h-1768.727v93.091zM1861.818 401.455h279.273v-93.091h-279.273v93.091zM0 401.455h1768.727v-93.091h-1768.727v93.091zM1861.818 215.273h279.273v-93.091h-279.273v93.091zM0 215.273h1768.727v-93.091h-1768.727v93.091zM1861.818 29.091h279.273v-93.091h-279.273v93.091zM0 29.091h1768.727v-93.091h-1768.727v93.091z" />
<glyph unicode="&#xe910;" glyph-name="minimize" d="M213.333 192h597.333v-85.333h-597.333v85.333z" />
<glyph unicode="&#xe911;" glyph-name="layout_landscape-smartphones" d="M256.64 224.64h598.016v448h-598.016v-448zM128.64 362.624h41.984v171.989h-41.984v-171.989zM982.656 278.656c0-70.016-57.984-128-128-128h-683.989c-70.016 0-128 57.984-128 128v340.011c0 70.016 57.984 128 128 128h683.989c70.016 0 128-57.984 128-128v-340.011z" />
<glyph unicode="&#xe912;" glyph-name="layout_landscape-tablets" d="M854.656 181.973v533.333h-598.016v-533.333h598.016zM170.624 405.291v86.656h-41.984v-86.656h41.984zM854.656 107.989h-683.989c-70.016 0-128 57.984-128 128v425.344c0 70.016 57.984 128 128 128h683.989c70.016 0 128-57.984 128-128v-425.344c0-70.016-57.984-128-128-128v0z" />
<glyph unicode="&#xe913;" glyph-name="row_default_fe" d="M128 234.667h341.333v-86.016h-341.333v86.016zM554.667 234.667h341.333v-86.016h-341.333v86.016zM128 405.333h341.333v-86.016h-341.333v86.016zM554.667 405.333h341.333v-86.016h-341.333v86.016zM128 576h341.333v-86.016h-341.333v86.016zM554.667 576h341.333v-86.016h-341.333v86.016zM128 746.667h341.333v-86.016h-341.333v86.016zM554.667 746.667h341.333v-86.016h-341.333v86.016z" />
<glyph unicode="&#xe914;" glyph-name="delete_empty" d="M255.36 150.016h-0.043c0-45.995 40.021-86.016 86.016-86.016h340.011c45.995 0 86.016 40.021 86.016 86.016v512h-512v-512zM340.693 576.683h341.333v-341.333c0-45.995-40.021-86.016-86.016-86.016h-169.344c-45.995 0-86.016 40.021-86.016 86.016l0.043 341.333zM809.344 790.016v-86.016h-596.011v86.016h148.011l43.989 41.984h212.011l43.989-41.984h148.011z" />
<glyph unicode="&#xe915;" glyph-name="arrow_drop_right" d="M426.667 233.344v427.989l214.016-214.016z" />
<glyph unicode="&#xe916;" glyph-name="layout_portrait-tablets" d="M778.667 790.016h-533.333v-598.016h533.333v598.016zM555.349 105.984h-86.656v-41.984h86.656v41.984zM852.651 790.016v-683.989c0-70.016-57.984-128-128-128h-425.344c-70.016 0-128 57.984-128 128v683.989c0 70.016 57.984 128 128 128h425.344c70.016 0 128-57.984 128-128v0z" />
</font>
</defs>
</svg>
